The Paul Butterfield Blues Band – Got A Mind To Give Up Living: Live 1966 (2016) {Elektra} | ViralVideoPk

Daily Dose of Free Downloads

The Paul Butterfield Blues Band – Got A Mind To Give Up Living: Live 1966 (2016) {Elektra}

Download

The Paul Butterfield Blues Band - Got A Mind To Give Up Living: Live 1966 (2016) {Elektra}

The Paul Butterfield Blues Band – Got A Mind To Give Up Living: Live 1966 (2016) {Elektra}
EAC rip (secure mode) | FLAC (tracks)+CUE+LOG -> 410 Mb | MP3 @320 -> 150 Mb
Full Artwork @ 300 dpi (jpg) -> 48 Mb | 5% repair rar
© 1966, 2016 Elektra / Real Gone Music | RCM-0456
Blues / Electric Chicago Blues / Blues Rock

Thanks to the dedicated effort of the folks at Real Gone, this often bootlegged date by the Paul Butterfield Blues Band gets its first official release. These 13 tracks come from a smoking date at the Unicorn Coffee House in Boston. Nobody’s sure of the exact date, but estimates put it somewhere during a two-week run in May, two months before the band’s classic East-West was released. There’s over an hour of music on what amounts to the first recorded document from this sextet: hard-grooving Chicago drummer Billy Davenport (Sam Lay left after the band’s debut album) joined vocalist/harmonicist Butterfield, guitarists Mike Bloomfield and Elvin Bishop, organist Mark Naftalin, and bassist Jerome Arnold. Featuring takes from two sets, the material contains tunes from the self-titled 1965 date, East-West, The Resurrection of Pigboy Crabshaw, and unissued music. The sound quality is quite raw but more than suffices in presenting this band firing on all cylinders.

A brief medley of themes titled "Instrumental Intro" is followed by a rocking "Look Over Yonders Wall" and "Born in Chicago," before slowing down to a simmer on the standard "Love Her with a Feeling." A live rendition of Allen Toussaint’s funky soul-blues "Get Out of My Life, Woman" gets a premiere here, as does Smokey Robinson’s "One More Heartache." The group’s improvisational bona fides are displayed amply on the first set closer, a 12-and-a-half-minute instrumental read of Nat Adderley’s "Work Song." After Butterfield states its theme, Bloomfield’s solo explores Eastern modalism, hard bop, Chicago blues, soul-jazz, and rock; it sets a blueprint for his bandmates’ breaks that follow. Set two’s kickoff track is another vehicle for improv, the uptempo blues "Coming Home Baby." It winds out over seven minutes and bleeds the seam toward jazz. Though brief, a previously unreleased reading of Percy Mayfield’s "Memory Pain" cooks with soulful intensity. The title track is a longer, slower, brooding Chicago blues with excellent work by Naftalin and Bloomfield, before swaggering covers of "Walking by Myself" and "Got My Mojo Working" close out the volume. Veteran journalist Chris Morris provides excellent liner notes, while semi-rare photos round out this handsome package, making Got a Mind to Give Up Living: Live 1966 a completely necessary addition to the Paul Butterfield Blues Band’s authorized shelf.

The Paul Butterfield Blues Band - Got A Mind To Give Up Living: Live 1966 (2016) {Elektra}

The Paul Butterfield Blues Band - Got A Mind To Give Up Living: Live 1966 (2016) {Elektra}

Real Gone Music INFO

tracklist:
01 – Instrumental Intro
02 – Look Over Yonders Wall
03 – Born In Chicago
04 – Love Her With A Feeling
05 – Get Out Of My Life Woman
06 – Never Say No
07 – One More Heartache
08 – Work Song
09 – Comin’ Home Baby
10 – Memory Pain
11 – I Got A Mind To Give Up Living
12 – Walking By Myself
13 – Got My Mojo Working

EAC log
Exact Audio Copy V1.3 from 2. September 2016

EAC extraction logfile from 19. December 2016, 17:12

The Paul Butterfield Blues Band / Got A Mind To Give Up Living – Live 1966

Used drive : ASUS DRW-24B1ST a Adapter: 1 ID: 0

Read mode : Secure
Utilize accurate stream : Yes
Defeat audio cache : Yes
Make use of C2 pointers : No

Read offset correction : 6
Overread into Lead-In and Lead-Out : No
Fill up missing offset samples with silence : Yes
Delete leading and trailing silent blocks : No
Null samples used in CRC calculations : Yes
Used interface : Native Win32 interface for Win NT & 2000
Gap handling : Appended to previous track

Used output format : User Defined Encoder
Selected bitrate : 896 kBit/s
Quality : High
Add ID3 tag : No
Command line compressor : C:Program Files (x86)Exact Audio CopyFlacflac.exe
Additional command line options : -8 -V -T "ARTIST=%artist%" -T "TITLE=%title%" -T "ALBUM=%albumtitle%" -T "DATE=%year%" -T "TRACKNUMBER=%tracknr%" -T "TOTALTRACKS=%numtracks%" -T "GENRE=%genre%" -T "ALBUMARTIST=%albumartist%" -T "ALBUM ARTIST=%albumartist%" -T "COMMENT=EAC Secure Mode, Test & Copy, AccurateRip, FLAC -8" %source%

TOC of the extracted CD

Track | Start | Length | Start sector | End sector
––––––––––––––––––––––––––––-
1 | 0:00.00 | 1:26.00 | 0 | 6449
2 | 1:26.00 | 2:08.21 | 6450 | 16070
3 | 3:34.21 | 4:12.17 | 16071 | 34987
4 | 7:46.38 | 5:40.10 | 34988 | 60497
5 | 13:26.48 | 3:24.49 | 60498 | 75846
6 | 16:51.22 | 3:41.30 | 75847 | 92451
7 | 20:32.52 | 3:42.44 | 92452 | 109145
8 | 24:15.21 | 12:33.02 | 109146 | 165622
9 | 36:48.23 | 7:17.60 | 165623 | 198457
10 | 44:06.08 | 2:46.65 | 198458 | 210972
11 | 46:52.73 | 6:35.73 | 210973 | 240670
12 | 53:28.71 | 4:17.64 | 240671 | 260009
13 | 57:46.60 | 5:14.13 | 260010 | 283572

Track 1

Filename U:FlacAAAAThe Paul Butterfield Blues Band – Got A Mind To Give Up Living (2016) [FLAC]1 – Instrumental Intro.wav

Pre-gap length 0:00:02.00

Peak level 91.6 %
Extraction speed 1.3 X
Track quality 99.8 %
Test CRC 16E11AF8
Copy CRC 16E11AF8
Accurately ripped (confidence 7) [97ED132D] (AR v2)
Copy OK

Track 2

Filename U:FlacAAAAThe Paul Butterfield Blues Band – Got A Mind To Give Up Living (2016) [FLAC]2 – Look Over Yonders Wall.wav

Peak level 86.6 %
Extraction speed 2.0 X
Track quality 100.0 %
Test CRC 6DA1B852
Copy CRC 6DA1B852
Accurately ripped (confidence 7) [AE19C068] (AR v2)
Copy OK

Track 3

Filename U:FlacAAAAThe Paul Butterfield Blues Band – Got A Mind To Give Up Living (2016) [FLAC]3 – Born In Chicago.wav

Peak level 91.2 %
Extraction speed 3.0 X
Track quality 100.0 %
Test CRC 22CDE15C
Copy CRC 22CDE15C
Accurately ripped (confidence 7) [324EA8AF] (AR v2)
Copy OK

Track 4

Filename U:FlacAAAAThe Paul Butterfield Blues Band – Got A Mind To Give Up Living (2016) [FLAC]4 – Love Her With A Feeling.wav

Peak level 92.2 %
Extraction speed 3.8 X
Track quality 100.0 %
Test CRC EF00F570
Copy CRC EF00F570
Accurately ripped (confidence 7) [FEBA1126] (AR v2)
Copy OK

Track 5

Filename U:FlacAAAAThe Paul Butterfield Blues Band – Got A Mind To Give Up Living (2016) [FLAC]5 – Get Out Of My Life Woman.wav

Peak level 92.2 %
Extraction speed 3.1 X
Track quality 100.0 %
Test CRC C1046E73
Copy CRC C1046E73
Accurately ripped (confidence 7) [5FAE4541] (AR v2)
Copy OK

Track 6

Filename U:FlacAAAAThe Paul Butterfield Blues Band – Got A Mind To Give Up Living (2016) [FLAC]6 – Never Say No.wav

Peak level 56.0 %
Extraction speed 3.1 X
Track quality 99.9 %
Test CRC 5AC55E1F
Copy CRC 5AC55E1F
Accurately ripped (confidence 7) [D4A3E96D] (AR v2)
Copy OK

Track 7

Filename U:FlacAAAAThe Paul Butterfield Blues Band – Got A Mind To Give Up Living (2016) [FLAC]7 – One More Heartache.wav

Peak level 86.4 %
Extraction speed 3.4 X
Track quality 100.0 %
Test CRC B4F9495E
Copy CRC B4F9495E
Accurately ripped (confidence 7) [06944971] (AR v2)
Copy OK

Track 8

Filename U:FlacAAAAThe Paul Butterfield Blues Band – Got A Mind To Give Up Living (2016) [FLAC]8 – Work Song.wav

Peak level 87.1 %
Extraction speed 6.0 X
Track quality 100.0 %
Test CRC 44BA50C0
Copy CRC 44BA50C0
Accurately ripped (confidence 7) [1A195D7F] (AR v2)
Copy OK

Track 9

Filename U:FlacAAAAThe Paul Butterfield Blues Band – Got A Mind To Give Up Living (2016) [FLAC]9 – Comin’ Home Baby.wav

Peak level 91.8 %
Extraction speed 4.8 X
Track quality 100.0 %
Test CRC 9DCB6BB3
Copy CRC 9DCB6BB3
Accurately ripped (confidence 7) [0CDE2718] (AR v2)
Copy OK

Track 10

Filename U:FlacAAAAThe Paul Butterfield Blues Band – Got A Mind To Give Up Living (2016) [FLAC]10 – Memory Pain.wav

Peak level 88.9 %
Extraction speed 3.5 X
Track quality 100.0 %
Test CRC F9088362
Copy CRC F9088362
Accurately ripped (confidence 7) [30428547] (AR v2)
Copy OK

Track 11

Filename U:FlacAAAAThe Paul Butterfield Blues Band – Got A Mind To Give Up Living (2016) [FLAC]11 – I Got A Mind To Give Up Living.wav

Peak level 91.4 %
Extraction speed 3.4 X
Track quality 100.0 %
Test CRC BF8CD5FB
Copy CRC BF8CD5FB
Accurately ripped (confidence 7) [61B07AA2] (AR v2)
Copy OK

Track 12

Filename U:FlacAAAAThe Paul Butterfield Blues Band – Got A Mind To Give Up Living (2016) [FLAC]12 – Walking By Myself.wav

Peak level 92.0 %
Extraction speed 3.2 X
Track quality 100.0 %
Test CRC 4A544964
Copy CRC 4A544964
Accurately ripped (confidence 7) [8A776148] (AR v2)
Copy OK

Track 13

Filename U:FlacAAAAThe Paul Butterfield Blues Band – Got A Mind To Give Up Living (2016) [FLAC]13 – Got My Mojo Working.wav

Peak level 87.8 %
Extraction speed 3.4 X
Track quality 100.0 %
Test CRC 892EFA94
Copy CRC 892EFA94
Accurately ripped (confidence 7) [B90CA257] (AR v2)
Copy OK

All tracks accurately ripped

No errors occurred

End of status report

–– CUETools DB Plugin V2.1.6

[CTDB TOCID: p1GAXX2paScLkFySLas3XgltYWc-] found
Submit result: p1GAXX2paScLkFySLas3XgltYWc- has been confirmed
Track | CTDB Status
1 | (15/15) Accurately ripped
2 | (15/15) Accurately ripped
3 | (15/15) Accurately ripped
4 | (15/15) Accurately ripped
5 | (15/15) Accurately ripped
6 | (15/15) Accurately ripped
7 | (15/15) Accurately ripped
8 | (15/15) Accurately ripped
9 | (15/15) Accurately ripped
10 | (15/15) Accurately ripped
11 | (15/15) Accurately ripped
12 | (15/15) Accurately ripped
13 | (15/15) Accurately ripped

==== Log checksum C5469175C8E6BDC41E364260417728D6D0D910DAF9E6F9AC6252C2C5B3C7E543 ====

The Paul Butterfield Blues Band - Got A Mind To Give Up Living: Live 1966 (2016) {Elektra}

The Paul Butterfield Blues Band - Got A Mind To Give Up Living: Live 1966 (2016) {Elektra}

===

The Paul Butterfield Blues Band – Got A Mind To Give Up Living: Live 1966 (2016) {Elektra} Download, Warez, DDL, Free, Full Album, Torrent, Legal.

Download


  • Recent Posts

  • Recent Tags