The Pastel Six – Cinnamon Cinder (1998) {Garland/DCC} **[RE-UP]**

Download
The Pastel Six - Cinnamon Cinder (1998) {Garland/DCC} **[RE-UP]**

The Pastel Six – Cinnamon Cinder (1998) {Garland/DCC}
EAC Rip | FLAC with CUE and log | scans | 299 mb
MP3 CBR 320kbps | RAR | 124 mb
Genre: surf rock, rock’n’roll

According to the only description on the CD that describes the band, they were The popular house band at Bob Eubanks’ Cinnamon Cinder Club in North Hollywood.

The music is a mixture of the style of surf music that was popular in the early 60’s, and just rock & roll with a nice R&B influence, featuring a nice horn section that was dominant before guitars ruled the world. The group go back and forth between vocals and instrumentals, and both are done well. Definitely from an innocent time long gone, back when every high school had at least 50 different groups and every weekend there was a battle of the bands at the local rollerskating rink.

Compared to the other work SH has remastered in his career, The Pastel Six are easily one of the most obscure. It’s one thing to release a compilation of obscure 45’s by 20 or so groups, but a 20-song compilation CD from a group who were known (barely) for an obscure hit song? Yes. The music’s great and of course it sounds good too.

Having previously only heard their hit single "Cinnamon Cinder" and it’s instro B-side "Bandito," I had little to base an understanding of the band on, and even less to justify their reported extreme popularity as house band at Bob Eubanks’ "Cinnamon Cinder" club. After listening to this whole CD, it becomes clear that they were one fun band, unpretentious, and utterly silly. They embraced the pure fun or rock ‘n’ roll without any pretext of art – just good fun. From this new view, I can easily see how they were the party band of choice on weekend nights at the CC. This is the sort of band that creates a perfect backdrop for your party, not the sort of band you’d sit listening to, mesmerized by the artistry. Too too fun. Oh, yeah, besides the handful of totally fun pop vocals, there are a bunch of really cool instros as well.

The Pastel Six - Cinnamon Cinder (1998) {Garland/DCC} **[RE-UP]**

1. Cinnamon Cinder (It’s A Very Nice Dance)
2. Richard’s Bounce *
3. Open House
4. Little Girl *
5. Cotton High *
6. Slow Bandito *
7. Take IT Off *
8. A Week From Tuesday *
9. By Golly *
10. Karela *
11. Open House At The Cinder aka Wemo Stomp
12. Peppermint Stick *
13. Hot Dogger
14. Twitchin’
15. Don’t Leave Me
16. Rendezvous Rods
17. Strange Ghost
18. Surfer Smooch aka Heidi
19. Bandito
20. Brahms’ Nightmare

* Previously unreleased
All songs stereophonic except #1
–-
Bob Toten-guitar
Billy Myers-sax
Tony Stealman-sax
Eric Flickert-sax
Dave Cadison-guitar
Richard Rodriguez-bass
Lynn Hamm-drums
Ace Holder-harp on "Wemo Stomp"

Produced and recorded by Bill Wenzel between 1961-1963 for Zen and Downey Records
Compiled and mastered b Steve Hoffman

EAC Log
EAC extraction logfile from 16. September 2006, 18:49 for CD
The Pastel Six / Cinnamon Cinder

Used drive : LITE-ON DVDRW SOHW-1633S Adapter: 0 ID: 0
Read mode : Secure with NO C2, accurate stream, disable cache
Read offset correction : 12
Overread into Lead-In and Lead-Out : No

Used output format : Internal WAV Routines
44.100 Hz; 16 Bit; Stereo

Other options :
Fill up missing offset samples with silence : Yes
Delete leading and trailing silent blocks : No
Installed external ASPI interface

Track 1
Filename D:FLACThe Pastel Six – Cinnamon Cinder (1998) [FLAC]

(Garland, DCC)1 – Cinnamon Cinder (It’s A Very Nice Dance).wav

Pre-gap length 0:00:02.42

Peak level 83.6 %
Track quality 100.0 %
Test CRC 01207F7C
Copy CRC 01207F7C
Copy OK

Track 2
Filename D:FLACThe Pastel Six – Cinnamon Cinder (1998) [FLAC]

(Garland, DCC)2 – Richard’s Bounce.wav

Pre-gap length 0:00:02.13

Peak level 98.6 %
Track quality 100.0 %
Test CRC 514848B2
Copy CRC 514848B2
Copy OK

Track 3
Filename D:FLACThe Pastel Six – Cinnamon Cinder (1998) [FLAC]

(Garland, DCC)3 – Open House.wav

Pre-gap length 0:00:00.62

Peak level 96.8 %
Track quality 100.0 %
Test CRC 21AACEB2
Copy CRC 21AACEB2
Copy OK

Track 4
Filename D:FLACThe Pastel Six – Cinnamon Cinder (1998) [FLAC]

(Garland, DCC)4 – Little Girl.wav

Pre-gap length 0:00:02.00

Peak level 100.0 %
Track quality 100.0 %
Test CRC 5C784604
Copy CRC 5C784604
Copy OK

Track 5
Filename D:FLACThe Pastel Six – Cinnamon Cinder (1998) [FLAC]

(Garland, DCC)5 – Cotton High.wav

Pre-gap length 0:00:01.33

Peak level 72.3 %
Track quality 100.0 %
Test CRC 3413C150
Copy CRC 3413C150
Copy OK

Track 6
Filename D:FLACThe Pastel Six – Cinnamon Cinder (1998) [FLAC]

(Garland, DCC)6 – Slow Bandito.wav

Pre-gap length 0:00:01.50

Peak level 88.8 %
Track quality 100.0 %
Test CRC 68F312EA
Copy CRC 68F312EA
Copy OK

Track 7
Filename D:FLACThe Pastel Six – Cinnamon Cinder (1998) [FLAC]

(Garland, DCC)7 – Take It Off.wav

Pre-gap length 0:00:01.60

Peak level 96.7 %
Track quality 100.0 %
Test CRC C63E61AF
Copy CRC C63E61AF
Copy OK

Track 8
Filename D:FLACThe Pastel Six – Cinnamon Cinder (1998) [FLAC]

(Garland, DCC)8 – A Week From Tuesday.wav

Pre-gap length 0:00:02.13

Peak level 93.2 %
Track quality 100.0 %
Test CRC 06E1F87B
Copy CRC 06E1F87B
Copy OK

Track 9
Filename D:FLACThe Pastel Six – Cinnamon Cinder (1998) [FLAC]

(Garland, DCC)9 – By Golly.wav

Pre-gap length 0:00:01.29

Peak level 96.7 %
Track quality 100.0 %
Test CRC 03B1BE58
Copy CRC 03B1BE58
Copy OK

Track 10
Filename D:FLACThe Pastel Six – Cinnamon Cinder (1998) [FLAC]

(Garland, DCC)10 – Karela.wav

Pre-gap length 0:00:02.20

Peak level 83.1 %
Track quality 100.0 %
Test CRC 36F5BA55
Copy CRC 36F5BA55
Copy OK

Track 11
Filename D:FLACThe Pastel Six – Cinnamon Cinder (1998) [FLAC]

(Garland, DCC)11 – Open House At The Cinder.wav

Pre-gap length 0:00:01.76

Peak level 71.7 %
Track quality 99.9 %
Test CRC 412C62F0
Copy CRC 412C62F0
Copy OK

Track 12
Filename D:FLACThe Pastel Six – Cinnamon Cinder (1998) [FLAC]

(Garland, DCC)12 – Peppermint Stick.wav

Pre-gap length 0:00:01.73

Peak level 100.0 %
Track quality 99.9 %
Test CRC 7D79660F
Copy CRC 7D79660F
Copy OK

Track 13
Filename D:FLACThe Pastel Six – Cinnamon Cinder (1998) [FLAC]

(Garland, DCC)13 – Hot Dogger.wav

Pre-gap length 0:00:01.37

Peak level 97.7 %
Track quality 100.0 %
Test CRC 4BC8BB63
Copy CRC 4BC8BB63
Copy OK

Track 14
Filename D:FLACThe Pastel Six – Cinnamon Cinder (1998) [FLAC]

(Garland, DCC)14 – Twitchin’.wav

Pre-gap length 0:00:01.76

Peak level 100.0 %
Track quality 99.9 %
Test CRC D0FE2B66
Copy CRC D0FE2B66
Copy OK

Track 15
Filename D:FLACThe Pastel Six – Cinnamon Cinder (1998) [FLAC]

(Garland, DCC)15 – Don’t Leave Me.wav

Pre-gap length 0:00:01.80

Peak level 100.0 %
Track quality 100.0 %
Test CRC 2E1CC3E0
Copy CRC 2E1CC3E0
Copy OK

Track 16
Filename D:FLACThe Pastel Six – Cinnamon Cinder (1998) [FLAC]

(Garland, DCC)16 – Rendezvous Rods.wav

Pre-gap length 0:00:01.30

Peak level 88.1 %
Track quality 99.9 %
Test CRC D2D4D556
Copy CRC D2D4D556
Copy OK

Track 17
Filename D:FLACThe Pastel Six – Cinnamon Cinder (1998) [FLAC]

(Garland, DCC)17 – Strange Ghost.wav

Pre-gap length 0:00:02.37

Peak level 100.0 %
Track quality 100.0 %
Test CRC 079E4839
Copy CRC 079E4839
Copy OK

Track 18
Filename D:FLACThe Pastel Six – Cinnamon Cinder (1998) [FLAC]

(Garland, DCC)18 – Surfer Smooch.wav

Pre-gap length 0:00:01.29

Peak level 60.4 %
Track quality 99.9 %
Test CRC 276617D6
Copy CRC 276617D6
Copy OK

Track 19
Filename D:FLACThe Pastel Six – Cinnamon Cinder (1998) [FLAC]

(Garland, DCC)19 – Bandito.wav

Pre-gap length 0:00:01.40

Peak level 89.0 %
Track quality 100.0 %
Test CRC A2F2CF27
Copy CRC A2F2CF27
Copy OK

Track 20
Filename D:FLACThe Pastel Six – Cinnamon Cinder (1998) [FLAC]

(Garland, DCC)20 – Brahms’ Nightmare.wav

Pre-gap length 0:00:02.06

Peak level 100.0 %
Track quality 100.0 %
Test CRC 86617DF1
Copy CRC 86617DF1
Copy OK

No errors occured

End of status report

The Pastel Six - Cinnamon Cinder (1998) {Garland/DCC} **[RE-UP]**

Check out other titles in my Avaxhome blog or my personal blog.

The Pastel Six – Cinnamon Cinder (1998) {Garland/DCC} **[RE-UP]** Download, Warez, DDL, Free, Full Album, Torrent, Legal.

Download