The Oscar Peterson Trio – Walking The Line (1971) {2005, Most Perfect Sound Edition, 192kHz/24-bit Remaster}

Download
The Oscar Peterson Trio - Walking The Line (1971) {2005, Most Perfect Sound Edition, 192kHz/24-bit Remaster}

The Oscar Peterson Trio – Walking The Line (1971) {2005, Most Perfect Sound Edition, 192kHz/24-bit Remaster}
EAC Rip | FLAC (Tracks) + Cue + Log + m3u ~ 293 Mb | MP3 CBR320 ~ 130 Mb
Scans Included (JPG, 600 dpi) | RAR 5% Recovery
Jazz | MPS Records #06024 9827009

Oscar Peterson – Remastered Anniversary Edition: Reissue of the nine celebrated MPS studio albums, recorded in Germany in the 1970s. Accompanying Oscar Peterson’s 80th birthday on August 15, 2005. For the first time reissued with original cover artwork and original liner notes. Featuring new liner notes by Dr. Richard Palmer, co-author of the Oscar Peterson autobiography My Jazz Odyssey. New 192kHz/24-bit remastering, supervised by original album producer Hans Georg Brunner-Schwer.

The Oscar Peterson Trio - Walking The Line (1971) {2005, Most Perfect Sound Edition, 192kHz/24-bit Remaster}

Oscar Peterson’s series of recordings for Hans Georg Brunner-Schwer during the 1960s and early ’70s are one of many high points in his long career. With George "Jiri" Mraz on bass and Ray Price on drums, Peterson’s flashy romp through "I Love You" (complete with a humorous detour into the opera "Pagliacci") and mid-tempo walk through "All of You" salute Cole Porter in style on Walking the Line. "Rock of Ages" isn’t the old hymn but a lively, gospel-inflected Peterson original that will easily get any congregation swinging and swaying to the music. His mastery of the ballad form is heard in his sensitive interpretation of "Once Upon a Summertime," which showcases Mraz’s gorgeous tone, as Price sits out this one.

~ Ken Dryden, All Music
Official Website | Wiki | Discogs | All Music

***************

The Oscar Peterson Trio - Walking The Line (1971) {2005, Most Perfect Sound Edition, 192kHz/24-bit Remaster}

The Oscar Peterson Trio - Walking The Line (1971) {2005, Most Perfect Sound Edition, 192kHz/24-bit Remaster}

Track List:

01. I Love You [0:05:14.39]
02. Rock of Ages [0:05:32.18]
03. Once Upon a Summertime [0:05:19.60]
04. Just Friends [0:03:58.14]
05. Teach Me Tonight [0:05:07.02]
06. The Windmills of Your Mind [0:05:04.41]
07. I Didn’t Know What Time It Was [0:06:37.47]
08. All of You [0:05:01.47]

Personnel:
Oscar Peterson – piano
Jiri Mraz – double bass
Ray Price – drums

EAC Log
Exact Audio Copy V1.0 beta 3 from 29. August 2011

EAC extraction logfile from 1. October 2012, 12:20

The Oscar Peterson Trio / Walking the Line

Used drive : Optiarc DVD RW AD-5170A Adapter: 0 ID: 1

Read mode : Secure
Utilize accurate stream : Yes
Defeat audio cache : Yes
Make use of C2 pointers : Yes

Read offset correction : 48
Overread into Lead-In and Lead-Out : No
Fill up missing offset samples with silence : Yes
Delete leading and trailing silent blocks : No
Null samples used in CRC calculations : Yes
Used interface : Installed external ASPI interface
Gap handling : Appended to previous track

Used output format : User Defined Encoder
Selected bitrate : 896 kBit/s
Quality : High
Add ID3 tag : No
Command line compressor : C:MMProgramExact Audio CopyFLACFLAC.EXE
Additional command line options : -6 -V -T "ARTIST=%artist%" -T "TITLE=%title%" -T "ALBUM=%albumtitle%" -T "DATE=%year%" -T "TRACKNUMBER=%tracknr%" -T "GENRE=%genre%" -T "COMMENT=%comment%" -T "BAND=%albuminterpret%" -T "ALBUMARTIST=%albuminterpret%" -T "COMPOSER=%composer%" %haslyrics%–tag-from-file=LYRICS="%lyricsfile%"%haslyrics% -T "DISCNUMBER=%cdnumber%" -T "TOTALDISCS=%totalcds%" -T "TOTALTRACKS=%numtracks%" %hascover%–picture="%coverfile%"%hascover% %source% -o %dest%

TOC of the extracted CD

Track | Start | Length | Start sector | End sector
––––––––––––––––––––––––––––-
1 | 0:00.00 | 5:14.39 | 0 | 23588
2 | 5:14.39 | 5:32.18 | 23589 | 48506
3 | 10:46.57 | 5:19.60 | 48507 | 72491
4 | 16:06.42 | 3:58.14 | 72492 | 90355
5 | 20:04.56 | 5:07.02 | 90356 | 113382
6 | 25:11.58 | 5:04.41 | 113383 | 136223
7 | 30:16.24 | 6:37.47 | 136224 | 166045
8 | 36:53.71 | 5:01.47 | 166046 | 188667

Track 1

Filename C:mmOscar Peterson1971(2005) – Walking The Line1 – I Love You.wav

Pre-gap length 0:00:02.00

Peak level 96.9 %
Extraction speed 1.3 X
Track quality 99.9 %
Test CRC D1238BDE
Copy CRC D1238BDE
Accurately ripped (confidence 4) [65808123] (AR v2)
Copy OK

Track 2

Filename C:mmOscar Peterson1971(2005) – Walking The Line2 – Rock of Ages.wav

Pre-gap length 0:00:03.25

Peak level 91.6 %
Extraction speed 1.5 X
Track quality 100.0 %
Test CRC 0B768205
Copy CRC 0B768205
Accurately ripped (confidence 4) [7E10BA0F] (AR v2)
Copy OK

Track 3

Filename C:mmOscar Peterson1971(2005) – Walking The Line3 – Once Upon a Summertime.wav

Pre-gap length 0:00:03.65

Peak level 96.8 %
Extraction speed 1.5 X
Track quality 100.0 %
Test CRC B62B1859
Copy CRC B62B1859
Accurately ripped (confidence 4) [9E68E444] (AR v2)
Copy OK

Track 4

Filename C:mmOscar Peterson1971(2005) – Walking The Line4 – Just Friends.wav

Pre-gap length 0:00:03.54

Peak level 96.7 %
Extraction speed 1.4 X
Track quality 100.0 %
Test CRC AC6864C6
Copy CRC AC6864C6
Accurately ripped (confidence 4) [01E3EE61] (AR v2)
Copy OK

Track 5

Filename C:mmOscar Peterson1971(2005) – Walking The Line5 – Teach Me Tonight.wav

Pre-gap length 0:00:04.00

Peak level 96.9 %
Extraction speed 1.5 X
Track quality 100.0 %
Test CRC B44A2F01
Copy CRC B44A2F01
Accurately ripped (confidence 4) [280D3D49] (AR v2)
Copy OK

Track 6

Filename C:mmOscar Peterson1971(2005) – Walking The Line6 – The Windmills of Your Mind.wav

Pre-gap length 0:00:04.03

Peak level 97.0 %
Extraction speed 1.5 X
Track quality 100.0 %
Test CRC A93E52D2
Copy CRC A93E52D2
Accurately ripped (confidence 3) [BE194FB9] (AR v2)
Copy OK

Track 7

Filename C:mmOscar Peterson1971(2005) – Walking The Line7 – I Didn’t Know What Time It Was.wav

Pre-gap length 0:00:03.61

Peak level 96.6 %
Extraction speed 1.5 X
Track quality 100.0 %
Test CRC CA67BD3B
Copy CRC CA67BD3B
Accurately ripped (confidence 3) [E0F6266F] (AR v2)
Copy OK

Track 8

Filename C:mmOscar Peterson1971(2005) – Walking The Line8 – All of You.wav

Pre-gap length 0:00:03.40

Peak level 96.3 %
Extraction speed 0.2 X
Track quality 100.0 %
Test CRC 871C05B7
Copy CRC 871C05B7
Accurately ripped (confidence 4) [D6198775] (AR v2)
Copy OK

All tracks accurately ripped

No errors occurred

End of status report

–– CUETools DB Plugin V2.1.3

[CTDB TOCID: 9RMxNyyXl2OSZ.i0OKe5jfs6y0o-] found
[f606b2de] (17/17) Accurately ripped

DR Log
foobar2000 1.2.6 / Dynamic Range Meter 1.1.1
log date: 2017-07-17 01:51:26

––––––––––––––––––––––––––––––––––––––––
Analyzed: The Oscar Peterson Trio / Walking the Line
––––––––––––––––––––––––––––––––––––––––

DR Peak RMS Duration Track
––––––––––––––––––––––––––––––––––––––––
DR10 -0.27 dB -13.10 dB 5:15 01-I Love You
DR11 -0.76 dB -13.31 dB 5:32 02-Rock of Ages
DR13 -0.28 dB -17.00 dB 5:20 03-Once Upon a Summertime
DR10 -0.29 dB -12.04 dB 3:58 04-Just Friends
DR9 -0.27 dB -11.43 dB 5:07 05-Teach Me Tonight
DR10 -0.26 dB -12.19 dB 5:05 06-The Windmills of Your Mind
DR13 -0.30 dB -16.74 dB 6:38 07-I Didn’t Know What Time It Was
DR11 -0.32 dB -14.20 dB 5:02 08-All of You
––––––––––––––––––––––––––––––––––––––––

Number of tracks: 8
Official DR value: DR11

Samplerate: 44100 Hz
Channels: 2
Bits per sample: 16
Bitrate: 850 kbps
Codec: FLAC
================================================================================

CUETools Log
[CUETools log; Date: 17.07.2017 1:52:22; Version: 2.1.5]
[CTDB TOCID: 9RMxNyyXl2OSZ.i0OKe5jfs6y0o-] found.
Track | CTDB Status
1 | (48/48) Accurately ripped
2 | (48/48) Accurately ripped
3 | (47/48) Accurately ripped
4 | (48/48) Accurately ripped
5 | (48/48) Accurately ripped
6 | (48/48) Accurately ripped
7 | (48/48) Accurately ripped
8 | (48/48) Accurately ripped
[AccurateRip ID: 000cce61-00555e46-6409d308] found.
Track [ CRC | V2 ] Status
01 [909d6561|65808123] (19+25/52) Accurately ripped
02 [3b06b669|7e10ba0f] (19+25/52) Accurately ripped
03 [e5063e56|9e68e444] (19+25/52) Accurately ripped
04 [41850fe1|01e3ee61] (19+25/52) Accurately ripped
05 [56d36a4b|280d3d49] (19+25/52) Accurately ripped
06 [60c8417b|be194fb9] (19+24/51) Accurately ripped
07 [f78c25ae|e0f6266f] (19+24/51) Accurately ripped
08 [a91487ac|d6198775] (19+26/53) Accurately ripped
Offsetted by -342:
01 [b89bd6d7] (03/52) Accurately ripped
02 [90bddc4d] (03/52) Accurately ripped
03 [bb5505c6] (03/52) Accurately ripped
04 [bd856c27] (03/52) Accurately ripped
05 [2954f833] (03/52) Accurately ripped
06 [b8dff275] (03/51) Accurately ripped
07 [05d199ea] (03/51) Accurately ripped
08 [ae98ee32] (03/53) Accurately ripped

Track Peak [ CRC32 ] [W/O NULL] [ LOG ]
– 97,0 [48F75AF1] [72A2BF08]
01 96,9 [D1238BDE] [EAF0B650] CRC32
02 91,6 [0B768205] [8E01282D] CRC32
03 96,8 [B62B1859] [4F3A55AA] CRC32
04 96,7 [AC6864C6] [1B35CFE7] CRC32
05 96,9 [B44A2F01] [DA581BAE] CRC32
06 97,0 [A93E52D2] [22AE8B77] CRC32
07 96,6 [CA67BD3B] [1B00CDE9] CRC32
08 96,3 [871C05B7] [38476473] CRC32

The Oscar Peterson Trio - Walking The Line (1971) {2005, Most Perfect Sound Edition, 192kHz/24-bit Remaster}

All thanks go to sergych

>>> Oscar Peterson in my blog <<<

Download from icerbox.com:

The Oscar Peterson Trio – Walking The Line (1971) {2005, Most Perfect Sound Edition, 192kHz/24-bit Remaster} Download, Warez, DDL, Free, Full Album, Torrent, Legal.

Download