The Oscar Peterson Trio – The Legendary Oscar Peterson Trio Live At The Blue Note (1990)

Download
The Oscar Peterson Trio - The Legendary Oscar Peterson Trio Live At The Blue Note (1990)

The Oscar Peterson Trio – The Legendary Oscar Peterson Trio Live At The Blue Note (1990)
EAC Rip | FLAC (Img) + Cue + Log ~ 374 Mb | MP3 CBR320 ~ 187 Mb
Scans Included (JPG, 600 dpi) | RAR 5% Recovery
Jazz, Bop | Telarc #CD-83304

Pianist Oscar Peterson had a reunion with guitarist Herb Ellis and bassist Ray Brown at a well-publicized get-together at New York’s Blue Note in March 1990. The trio (his regular group of the late ’50s) was augmented by Peterson’s late-’60s drummer Bobby Durham for spirited performances. Rather than using their complex arrangements of the past, the pianist and his alumni simply jammed through the performances and the results are quite rewarding. On the first of four CDs released by Telarc, the quartet performs "Honeysuckle Rose," a ballad medley, three of the pianist’s originals and "Sweet Georgia Brown." As this and the other CDs in the series show, the magic was still there.

~ Scott Yanow, All Music
Official Website | Wiki | Discogs | All Music

***************

The Oscar Peterson Trio - The Legendary Oscar Peterson Trio Live At The Blue Note (1990)

The Oscar Peterson Trio - The Legendary Oscar Peterson Trio Live At The Blue Note (1990)

Track List:

01. Introductions [0:01:57.72]
02. Honeysuckle Rose [0:08:53.28]
03. Let There Be Love [0:12:03.37]
04. Peace For South Africa [0:10:58.00]
05. Sushi [0:08:15.63]
06. I Remember You – A Child Is Born – Tenderly [0:15:14.62]
07. Sweet Georgia Brown [0:09:35.25]
08. Blues For Big Scotia [0:06:28.13]

Personnel:
Ray Brown – bass
Bobby Durham – drums
Herb Ellis – guitar
Oscar Peterson – piano

EAC Log
Exact Audio Copy V1.0 beta 3 from 29. August 2011

EAC extraction logfile from 15. February 2014, 21:16

Oscar Peterson Trio / The Legendary Oscar Peterson Trio Live at the Blue Note

Used drive : ATAPI iHAS124 D Adapter: 0 ID: 2

Read mode : Secure
Utilize accurate stream : Yes
Defeat audio cache : Yes
Make use of C2 pointers : Yes

Read offset correction : 6
Overread into Lead-In and Lead-Out : No
Fill up missing offset samples with silence : Yes
Delete leading and trailing silent blocks : No
Null samples used in CRC calculations : Yes
Used interface : Installed external ASPI interface

Used output format : User Defined Encoder
Selected bitrate : 1024 kBit/s
Quality : High
Add ID3 tag : No
Command line compressor : C:Program Files (x86)Exact Audio CopyFlacflac.exe
Additional command line options : -6 -V -T "ARTIST=%artist%" -T "TITLE=%title%" -T "ALBUM=%albumtitle%" -T "DATE=%year%" -T "TRACKNUMBER=%tracknr%" -T "GENRE=%genre%" -T "COMMENT=%comment%" -T "BAND=%albuminterpret%" -T "COMPOSER=%composer%" %haslyrics%–tag-from-file=LYRICS="%lyricsfile%"%haslyrics% -T "DISCNUMBER=%cdnumber%" -T "TOTALDISCS=%totalcds%" -T "TOTALTRACKS=%numtracks%" %hascover%–picture="%coverfile%"%hascover% %source% -o %dest%

TOC of the extracted CD

Track | Start | Length | Start sector | End sector
––––––––––––––––––––––––––––-
1 | 0:00.00 | 1:57.72 | 0 | 8846
2 | 1:57.72 | 8:53.28 | 8847 | 48849
3 | 10:51.25 | 12:03.37 | 48850 | 103111
4 | 22:54.62 | 10:58.00 | 103112 | 152461
5 | 33:52.62 | 8:15.63 | 152462 | 189649
6 | 42:08.50 | 15:14.62 | 189650 | 258261
7 | 57:23.37 | 9:35.25 | 258262 | 301411
8 | 66:58.62 | 6:28.13 | 301412 | 330524

Range status and errors

Selected range

Filename C:mmOscar Peterson1990 – Live At The Blue Note (The Oscar Peterson Trio) [CD-83304]Oscar Peterson Trio – The Legendary Oscar Peterson Trio Live at the Blue Note.wav

Peak level 100.0 %
Extraction speed 15.9 X
Range quality 100.0 %
Test CRC D93B05D0
Copy CRC D93B05D0
Copy OK

No errors occurred

AccurateRip summary

Track 1 accurately ripped (confidence 37) [87D0B846] (AR v2)
Track 2 accurately ripped (confidence 37) [18EDE181] (AR v2)
Track 3 accurately ripped (confidence 37) [B4CC8818] (AR v2)
Track 4 accurately ripped (confidence 37) [75F3B398] (AR v2)
Track 5 accurately ripped (confidence 37) [A2A24C89] (AR v2)
Track 6 accurately ripped (confidence 37) [7D5796FF] (AR v2)
Track 7 accurately ripped (confidence 37) [B826A74D] (AR v2)
Track 8 accurately ripped (confidence 36) [4FEEEC02] (AR v2)

All tracks accurately ripped

End of status report

DR Log
foobar2000 1.2.6 / Dynamic Range Meter 1.1.1
log date: 2017-07-28 23:32:36

––––––––––––––––––––––––––––––––––––––––
Analyzed: Oscar Peterson Trio / The Legendary Oscar Peterson Trio Live at the Blue Note
––––––––––––––––––––––––––––––––––––––––

DR Peak RMS Duration Track
––––––––––––––––––––––––––––––––––––––––
DR14 -0.86 dB -21.18 dB 1:58 01-Introductions
DR13 0.00 dB -16.06 dB 8:53 02-Honeysuckle Rose
DR16 0.00 dB -20.91 dB 12:03 03-Let There Be Love
DR14 -0.91 dB -20.45 dB 10:58 04-Peace For South Africa
DR16 0.00 dB -18.56 dB 8:16 05-Sushi
DR15 -0.75 dB -22.97 dB 15:15 06-I Remember You – A Child Is Born – Tenderly
DR15 0.00 dB -19.67 dB 9:35 07-Sweet Georgia Brown
DR13 0.00 dB -16.09 dB 6:28 08-Blues For Big Scotia
––––––––––––––––––––––––––––––––––––––––

Number of tracks: 8
Official DR value: DR15

Samplerate: 44100 Hz
Channels: 2
Bits per sample: 16
Bitrate: 659 kbps
Codec: FLAC
================================================================================

CUETools Log
[CUETools log; Date: 28.07.2017 23:33:18; Version: 2.1.5]
[CTDB TOCID: F49FH7aJ8tWGuTD1gebPrEeMG8k-] found.
Track | CTDB Status
1 | (240/245) Accurately ripped
2 | (239/245) Accurately ripped
3 | (237/245) Accurately ripped
4 | (234/245) Accurately ripped
5 | (237/245) Accurately ripped
6 | (235/245) Accurately ripped
7 | (233/245) Accurately ripped
8 | (238/245) Accurately ripped
[AccurateRip ID: 001541e0-00939066-55113708] found.
Track [ CRC | V2 ] Status
01 [8173dd56|87d0b846] (040+070/372) Accurately ripped
02 [7991f41a|18ede181] (040+070/372) Accurately ripped
03 [79fc49b7|b4cc8818] (040+070/371) Accurately ripped
04 [e8f02a5c|75f3b398] (039+070/371) Accurately ripped
05 [806c22fc|a2a24c89] (039+070/373) Accurately ripped
06 [8556b143|7d5796ff] (038+070/368) Accurately ripped
07 [0a986d98|b826a74d] (039+069/365) Accurately ripped
08 [b4a539ac|4feeec02] (040+068/361) Accurately ripped
Offsetted by -948:
01 [32fee047] (003/372) Accurately ripped
02 [4bf01011] (003/372) Accurately ripped
03 [351563b4] (004/371) Accurately ripped
04 [4c3e0314] (004/371) Accurately ripped
05 [b1fda3ac] (004/373) Accurately ripped
06 [735d39a9] (004/368) Accurately ripped
07 [8874659a] (004/365) Accurately ripped
08 [fe1d9feb] (004/361) Accurately ripped
Offsetted by -947:
01 [2edc21be] (003/372) Accurately ripped
02 [7275d4ab] (003/372) Accurately ripped
03 [3cdb5b1b] (003/371) Accurately ripped
04 [1f1e28a0] (003/371) Accurately ripped
05 [8518095b] (003/373) Accurately ripped
06 [57d59c1d] (003/368) Accurately ripped
07 [53190267] (003/365) Accurately ripped
08 [a1f691f6] (003/361) Accurately ripped
Offsetted by -688:
01 [a9f689b2] (003/372) Accurately ripped
02 [edd8a698] (004/372) Accurately ripped
03 [b8745a38] (004/371) Accurately ripped
04 [2f42726c] (004/371) Accurately ripped
05 [3a236d3a] (004/373) Accurately ripped
06 [72e6db5d] (004/368) Accurately ripped
07 [82cfa874] (004/365) Accurately ripped
08 [39ff41b5] (004/361) Accurately ripped
Offsetted by -664:
01 [4d64e517] (030/372) Accurately ripped
02 [f33d4f46] (029/372) Accurately ripped
03 [28ac17ae] (029/371) Accurately ripped
04 [465d5ed8] (029/371) Accurately ripped
05 [27010822] (030/373) Accurately ripped
06 [7d8ae007] (029/368) Accurately ripped
07 [462d9775] (030/365) Accurately ripped
08 [eff990c1] (030/361) Accurately ripped
Offsetted by -60:
01 [b13aefd0] (014/372) Accurately ripped
02 [4c134442] (014/372) Accurately ripped
03 [4c4a491f] (014/371) Accurately ripped
04 [174acbc3] (014/371) Accurately ripped
05 [d10e11f0] (014/373) Accurately ripped
06 [a9b26328] (014/368) Accurately ripped
07 [97e7dd85] (013/365) Accurately ripped
08 [fc605f45] (013/361) Accurately ripped
Offsetted by 538:
01 [27a5efc4] (044/372) Accurately ripped
02 [ecdbf28c] (043/372) Accurately ripped
03 [2da11fc6] (042/371) Accurately ripped
04 [47a8c56e] (044/371) Accurately ripped
05 [f0861893] (043/373) Accurately ripped
06 [d3ab091e] (043/368) Accurately ripped
07 [6f57da36] (041/365) Accurately ripped
08 [2bbe99f9] (041/361) Accurately ripped
Offsetted by 1584:
01 [f9ecf223] (010/372) Accurately ripped
02 [754ed440] (010/372) Accurately ripped
03 [7e9bca27] (010/371) Accurately ripped
04 [414d59cc] (010/371) Accurately ripped
05 [97dd2880] (010/373) Accurately ripped
06 [6fe19313] (010/368) Accurately ripped
07 [d2db47d2] (009/365) Accurately ripped
08 [ece75fbb] (009/361) Accurately ripped
Offsetted by -870:
01 [cf505d41] (000/372) No match (V2 was not tested)
02 [5b359a3a] (000/372) No match (V2 was not tested)
03 [c3fb6d01] (000/371) No match (V2 was not tested)
04 [c0d6d411] (000/371) No match (V2 was not tested)
05 [46d852c4] (000/373) No match (V2 was not tested)
06 [1ece3618] (000/368) No match (V2 was not tested)
07 [d76d8368] (000/365) No match (V2 was not tested)
08 [e380262b] (000/361) No match (V2 was not tested)
Offsetted by -684:
01 [d471e726] (002/372) Accurately ripped
02 [fef79d60] (002/372) Accurately ripped
03 [6526c111] (002/371) Accurately ripped
04 [07ff5b0d] (002/371) Accurately ripped
05 [68d4c83c] (002/373) Accurately ripped
06 [9cac30be] (000/368) No match (V2 was not tested)
07 [8389f4da] (002/365) Accurately ripped
08 [63775c3e] (000/361) No match (V2 was not tested)

Track Peak [ CRC32 ] [W/O NULL] [ LOG ]
– 100,0 [D93B05D0] [3C82708B] CRC32
01 90,5 [E737B07C] [94680C26]
02 100,0 [6B439486] [2948D2C9]
03 100,0 [38953EDE] [B342D9DF]
04 90,0 [988B5099] [99770C9E]
05 100,0 [4DC7919B] [38B82B62]
06 91,7 [BAC04DEA] [84396794]
07 100,0 [07290236] [9736C1FD]
08 100,0 [A3A8C284] [9931586E]

The Oscar Peterson Trio - The Legendary Oscar Peterson Trio Live At The Blue Note (1990)

All thanks go to sergych

>>> Oscar Peterson in my Blog <<<

Download from icerbox.com:

The Oscar Peterson Trio – The Legendary Oscar Peterson Trio Live At The Blue Note (1990) Download, Warez, DDL, Free, Full Album, Torrent, Legal.

Download