The Music Machine – Turn On: The Very Best Of The Music Machine (1999) Re-up

Download
The Music Machine - Turn On: The Very Best Of The Music Machine (1999) Re-up

The Music Machine – Turn On: The Very Best Of The Music Machine (1999)
EAC Rip | FLAC: Image+Cue+Log | 246 Mb | MP3 CBR 320 kbps | 105 Mb | Scans | Time: 43:06
Collectables Records | COL-CD-6044
Psychedelic Rock, Garage Rock

Critical favorites Music Machine are one of the most underappreciated legends of Garage Rock. This L.A. rock quintet had their biggest hit in 1966 with "Talk Talk", which rose to #15 on the Billboard Pop Singles chart. This CD is a real treat. It contains some of the best nuggets of the Psychedelic era.

While their West Coast brethren were slipping flowers into their hair, these LA proto-punkers were dyeing their hair black and exploring the dark side of psychedelia. Turn on the Machine , the group’s legendary 1966 debut album, is here in its entirety-including their two hits, Talk Talk and The People in Me -along with four extra cuts. Way ahead of its time.

Bonniwell Music Machine
Wikipedia | Allmusic
The Music Machine - Turn On: The Very Best Of The Music Machine (1999) Re-up

Track Listing

01. Talk Talk (1:56)
02. Trouble (2:13)
03. Cherry Cherry (3:10)
04. Taxman (2:33)
05. Some Other Drum (2:34)
06. Masculine Intuition (2:08)
07. The People In Me (2:56)
08. See See Rider (2:32)
09. Wrong (2:17)
10. 96 Tears (2:20)
11. The Music Machine – Come On In (2:55)
12. Hey Joe (4:13)

Bonus tracks
13. Double Yellow Line (2:12)
14. Absolutely Positively (2:10)
15. The Eagle Never Hunts the Fly (4:18)
16. I’ve Loved You (2:39)

The Band

• Sean Bonniwell – Rythm Guitar
• Keith Olsen – Bass Guitar
• Mark Landon – Lead Guitar
• Ron Edgar – Drums
• Doug Rhodes – Organ

Notes

All tracks have been digitally remastered.

This album contains all 12 tracks from the Music Machine’s 1966 debut album, (Turn On) The Music Machine (Original Sound 5015), including their two chart singles, "Talk Talk" and "The People in Me," plus both sides of both of their third and fourth singles, "Double Yellow Line"/"Absolutely Positive" and "I’ve Loved You"/"The Eagle Never Hunts the Fly." This is the group’s entire output for Original Sound Records; they switched to Warner Bros. in 1967 and changed their personnel and their name to Bonniwell’s Music Machine. Singer/guitarist/songwriter Sean Bonniwell dominates the proceedings with his sonorous voice, whether the band is playing originals like the unforgettable garage rock classic "Talk Talk" or such covers as the Beatles’ "Taxman" and fellow garage dwellers ? & the Mysterians’ "96 Tears." The playing is rudimentary, but more disciplined than that of many of the rock bands that came into existence in the mid-’60s, and Bonniwell’s songwriting is sufficiently varied that it is regrettable the group didn’t get much of a chance beyond its initial hit. ~ William Ruhlmann

EAC Log
Exact Audio Copy V1.0 beta 3 from 29. August 2011

EAC extraction logfile from 25. November 2013, 12:09

Music Machine / The Very Best of The Music Machine: Turn On

Used drive : Optiarc BDRW BD-M100A Adapter: 0 ID: 0

Read mode : Secure
Utilize accurate stream : Yes
Defeat audio cache : Yes
Make use of C2 pointers : No

Read offset correction : 102
Overread into Lead-In and Lead-Out : No
Fill up missing offset samples with silence : Yes
Delete leading and trailing silent blocks : No
Null samples used in CRC calculations : Yes
Used interface : Native Win32 interface for Win NT & 2000

Used output format : User Defined Encoder
Selected bitrate : 128 kBit/s
Quality : High
Add ID3 tag : No
Command line compressor : C:Program Files (x86)Exact Audio CopyFlacflac.exe
Additional command line options : -V -8 -T "Date=%year%" -T "Genre=%genre%" %source%

TOC of the extracted CD

Track | Start | Length | Start sector | End sector
––––––––––––––––––––––––––––-
1 | 0:00.00 | 1:56.45 | 0 | 8744
2 | 1:56.45 | 2:13.67 | 8745 | 18786
3 | 4:10.37 | 3:10.45 | 18787 | 33081
4 | 7:21.07 | 2:33.08 | 33082 | 44564
5 | 9:54.15 | 2:34.57 | 44565 | 56171
6 | 12:28.72 | 2:08.23 | 56172 | 65794
7 | 14:37.20 | 2:56.47 | 65795 | 79041
8 | 17:33.67 | 2:32.65 | 79042 | 90506
9 | 20:06.57 | 2:17.38 | 90507 | 100819
10 | 22:24.20 | 2:20.27 | 100820 | 111346
11 | 24:44.47 | 2:55.03 | 111347 | 124474
12 | 27:39.50 | 4:13.00 | 124475 | 143449
13 | 31:52.50 | 2:12.20 | 143450 | 153369
14 | 34:04.70 | 2:09.70 | 153370 | 163114
15 | 36:14.65 | 4:18.60 | 163115 | 182524
16 | 40:33.50 | 2:39.17 | 182525 | 194466

Range status and errors

Selected range

Filename C:UsersDesktopMusic Machine-BestMusic Machine – The Very Best of The Music Machine- Turn On.wav

Peak level 99.9 %
Extraction speed 4.8 X
Range quality 99.9 %
Test CRC 8645775C
Copy CRC 8645775C
Copy OK

No errors occurred

End of status report

==== Log checksum 60D48B8EEB31257E565ECF5EE5CAE3E87D47C749EBFA64C7B208BFDB075C31FA ====

Many thanks to the original uploader: uta5erika5

……
Welcome to My Blog for more wonderful music!
……

The Music Machine – Turn On: The Very Best Of The Music Machine (1999) Re-up Download, Warez, DDL, Free, Full Album, Torrent, Legal.

Download