The Mozartean Players – Mozart: Complete Piano Trios (2006)

Download
The Mozartean Players - Mozart: Complete Piano Trios (2006)

The Mozartean Players – Mozart: Complete Piano Trios (2006)
EAC | FLAC (image+.cue, log) | Covers Included | 76:54 + 59:33 | 548 MB
Genre: Classical | Label: Harmonia Mundi | Catalog: 2967033

The quality of the recorded sound is so perfectly clear on this recording, like finely etched crystal, while at the same time it is so robust and resonant, that it is difficult to believe that the piano played on these two marvelous CDs is a replica of a 1785 Walter fortepiano, a smaller and much more fragile instrument than today’s modern concert grand pianos.
Steve Lubin’s heavenly playing on this period instrument fortepiano conveys a sound of precision and refinement that might not be as readily attainable if these compositions were performed on a modern Steinway Grand piano. What is also conveyed by all three musicians is the sheer effervescent joy and bouyant enthusiasm in the allegro movements and the refined delicate beauty of the adagio movements.
Not only the piano, but the cello and violin are also superbly played by the musicians, who are perfectly in synch with each other, performing every note in seamless unity. Although Mozart’s piano trios have been considered as being among his lighter works, this evaluation should perhaps be revised and take into account that five of Mozart’s six complete piano trios were composed in the last ten years of his life, during the period of his full musical maturity, after he had left Salzburg for Vienna. As Steve Lubin writes in the informative CD-insert essay "three of the Vienna trios, in fact, are masterworks."
Even the less fully developed "Divertimento in B-flat major," composed when Mozart was 20 years old, is very much worth listening to. This 2-CD set of radiant musical gems is a pristine example of exquisitely performed chamber music.

AllMusic

The Mozartean Players - Mozart: Complete Piano Trios (2006)

Track List:

CD 1:
[01]-[03] Piano Trio (Divertimento) in B flat major K.254
[04]-[06] Piano Trio in G major K.496
[07]-[09] Piano Trio in B flat major K.502

EAC Log
Exact Audio Copy V1.0 beta 3 from 29. August 2011

EAC extraction logfile from 14. July 2012, 21:42

Mozart / Piano Trios (Complete) – The Mozartean Players (HM 1991) (Disc 1)

Used drive : HL-DT-STRW/DVD GCC-T10N Adapter: 1 ID: 0

Read mode : Secure
Utilize accurate stream : Yes
Defeat audio cache : Yes
Make use of C2 pointers : No

Read offset correction : 102
Overread into Lead-In and Lead-Out : No
Fill up missing offset samples with silence : Yes
Delete leading and trailing silent blocks : No
Null samples used in CRC calculations : Yes
Used interface : Native Win32 interface for Win NT & 2000

Used output format : User Defined Encoder
Selected bitrate : 128 kBit/s
Quality : High
Add ID3 tag : No
Command line compressor : C:Program FilesExact Audio CopyFlacflac.exe
Additional command line options : -8 -V -T "ARTIST=%artist%" -T "TITLE=%title%" -T "ALBUM=%albumtitle%" -T "DATE=%year%" -T "TRACKNUMBER=%tracknr%" -T "GENRE=%genre%" -T "PERFORMER=%albuminterpret%" -T "COMPOSER=%composer%" %haslyrics%–tag-from-file=LYRICS="%lyricsfile%"%haslyrics% -T "ALBUMARTIST=%albumartist%" -T "DISCNUMBER=%cdnumber%" -T "TOTALDISCS=%totalcds%" -T "TOTALTRACKS=%numtracks%" -T "COMMENT=%comment%" %source% -o %dest%

TOC of the extracted CD

Track | Start | Length | Start sector | End sector
––––––––––––––––––––––––––––-
1 | 0:00.00 | 8:39.72 | 0 | 38996
2 | 8:39.72 | 9:04.03 | 38997 | 79799
3 | 17:44.00 | 6:29.70 | 79800 | 109044
4 | 24:13.70 | 11:40.05 | 109045 | 161549
5 | 35:54.00 | 6:09.00 | 161550 | 189224
6 | 42:03.00 | 10:07.00 | 189225 | 234749
7 | 52:10.00 | 11:13.00 | 234750 | 285224
8 | 63:23.00 | 7:08.72 | 285225 | 317396
9 | 70:31.72 | 6:19.33 | 317397 | 345854

Range status and errors

Selected range

Filename C:Documents and SettingsМарияРабочий столTEMPMozartCD 1Mozart – Piano Trios (Complete) – The Mozartean Players (HM 1991) (Disc 1).wav

Peak level 52.7 %
Extraction speed 3.2 X
Range quality 100.0 %
Copy CRC F2F14D08
Copy OK

No errors occurred

AccurateRip summary

Track 1 accurately ripped (confidence 5) [7BCA36C5] (AR v1)
Track 2 accurately ripped (confidence 5) [FC539FEF] (AR v1)
Track 3 accurately ripped (confidence 5) [2DCC8433] (AR v1)
Track 4 accurately ripped (confidence 5) [835777A0] (AR v1)
Track 5 accurately ripped (confidence 5) [21861A3F] (AR v1)
Track 6 accurately ripped (confidence 5) [E78D9F29] (AR v1)
Track 7 accurately ripped (confidence 5) [B99162C6] (AR v1)
Track 8 accurately ripped (confidence 5) [312AB642] (AR v1)
Track 9 accurately ripped (confidence 5) [036A5085] (AR v1)

All tracks accurately ripped

End of status report

==== Log checksum 4148DB402C7F9B117B96FF477E33BEFF3EEB29E27631642E14362F165DD7C349 ====

CUETools Log
[CUETools log; Date: 12.02.2017 21:52:15; Version: 2.1.5]
[CTDB TOCID: Qz5fKFNdF0J3AyuQ7sVhSXo_9Uk-] found.
Track | CTDB Status
1 | (26/26) Accurately ripped
2 | (26/26) Accurately ripped
3 | (26/26) Accurately ripped
4 | (26/26) Accurately ripped
5 | (26/26) Accurately ripped
6 | (26/26) Accurately ripped
7 | (26/26) Accurately ripped
8 | (26/26) Accurately ripped
9 | (26/26) Accurately ripped
[AccurateRip ID: 001ae234-00c56690-67120309] found.
Track [ CRC | V2 ] Status
01 [7bca36c5|a8081101] (05+06/43) Accurately ripped
02 [fc539fef|3dd3f3f3] (05+06/43) Accurately ripped
03 [2dcc8433|160bcdc6] (05+06/44) Accurately ripped
04 [835777a0|e8c11054] (05+06/44) Accurately ripped
05 [21861a3f|695de1eb] (05+06/44) Accurately ripped
06 [e78d9f29|606508ae] (05+06/44) Accurately ripped
07 [b99162c6|e992b577] (05+06/43) Accurately ripped
08 [312ab642|f0795ea6] (05+06/44) Accurately ripped
09 [036a5085|cfe5cdcc] (05+05/44) Accurately ripped
Offsetted by -664:
01 [2ea21e99] (07/43) Accurately ripped
02 [4082745b] (07/43) Accurately ripped
03 [fa930780] (07/44) Accurately ripped
04 [33206399] (07/44) Accurately ripped
05 [8d0d3a30] (07/44) Accurately ripped
06 [827ee13b] (07/44) Accurately ripped
07 [74b29e12] (07/43) Accurately ripped
08 [44c3f9d6] (07/44) Accurately ripped
09 [eb1e4e76] (07/44) Accurately ripped
Offsetted by 1535:
01 [d5e8aef2] (02/43) Accurately ripped
02 [96b05dca] (02/43) Accurately ripped
03 [75ccb5f4] (02/44) Accurately ripped
04 [cedc7a90] (02/44) Accurately ripped
05 [2f20044a] (02/44) Accurately ripped
06 [4f7344e3] (02/44) Accurately ripped
07 [ed82cb81] (02/43) Accurately ripped
08 [3449d82e] (02/44) Accurately ripped
09 [c3da9428] (02/44) Accurately ripped
Offsetted by 2621:
01 [ed7063fd] (04/43) Accurately ripped
02 [e43aa96b] (04/43) Accurately ripped
03 [c05eda97] (04/44) Accurately ripped
04 [7b9d96ab] (04/44) Accurately ripped
05 [41727eaf] (04/44) Accurately ripped
06 [8fac40fa] (04/44) Accurately ripped
07 [87e1aef9] (04/43) Accurately ripped
08 [c77671be] (04/44) Accurately ripped
09 [b5a4e867] (04/44) Accurately ripped
Offsetted by 664:
01 [5e85fb41] (00/43) No match (V2 was not tested)
02 [c03d6ad8] (00/43) No match (V2 was not tested)
03 [584e89ca] (00/44) No match (V2 was not tested)
04 [cf7ff92a] (00/44) No match (V2 was not tested)
05 [ce9a9208] (00/44) No match (V2 was not tested)
06 [38232c13] (00/44) No match (V2 was not tested)
07 [8ee27438] (00/43) No match (V2 was not tested)
08 [9cd356e8] (00/44) No match (V2 was not tested)
09 [e2cee905] (00/44) No match (V2 was not tested)
Offsetted by 1716:
01 [81ce7a7b] (00/43) No match (V2 was not tested)
02 [d881d554] (00/43) No match (V2 was not tested)
03 [0888f276] (00/44) No match (V2 was not tested)
04 [11d44255] (00/44) No match (V2 was not tested)
05 [8a1ed9c8] (00/44) No match (V2 was not tested)
06 [263b5651] (00/44) No match (V2 was not tested)
07 [a50900b8] (00/43) No match (V2 was not tested)
08 [5c1533b0] (00/44) No match (V2 was not tested)
09 [9128fca2] (00/44) No match (V2 was not tested)

Track Peak [ CRC32 ] [W/O NULL] [ LOG ]
– 52,7 [F2F14D08] [77E05454] CRC32
01 45,9 [6C50B19E] [E0139093]
02 41,0 [34EA3844] [237D0E1D]
03 43,2 [C8818772] [AE480ADD]
04 46,7 [71292A6D] [DB43DB1C]
05 34,0 [6BDD1A09] [58CD8EC6]
06 48,8 [5074D353] [721F15FA]
07 45,9 [D354E18F] [BABBBD86]
08 30,0 [FB319B02] [10D7D730]
09 52,7 [3E7DBF1F] [5E9128A1]

CD 2:
[01]-[03] Piano Trio in E major K.542
[04]-[06] Piano Trio in C major K.548
[07]-[09] Piano Trio in G major K.564

EAC Log
Exact Audio Copy V1.0 beta 3 from 29. August 2011

EAC extraction logfile from 14. July 2012, 23:31

Mozart / Piano Trios (Complete) – The Mozartean Players (HM 1991) (Disc 2)

Used drive : HL-DT-STRW/DVD GCC-T10N Adapter: 1 ID: 0

Read mode : Secure
Utilize accurate stream : Yes
Defeat audio cache : Yes
Make use of C2 pointers : No

Read offset correction : 102
Overread into Lead-In and Lead-Out : No
Fill up missing offset samples with silence : Yes
Delete leading and trailing silent blocks : No
Null samples used in CRC calculations : Yes
Used interface : Native Win32 interface for Win NT & 2000

Used output format : User Defined Encoder
Selected bitrate : 128 kBit/s
Quality : High
Add ID3 tag : No
Command line compressor : C:Program FilesExact Audio CopyFlacflac.exe
Additional command line options : -8 -V -T "ARTIST=%artist%" -T "TITLE=%title%" -T "ALBUM=%albumtitle%" -T "DATE=%year%" -T "TRACKNUMBER=%tracknr%" -T "GENRE=%genre%" -T "PERFORMER=%albuminterpret%" -T "COMPOSER=%composer%" %haslyrics%–tag-from-file=LYRICS="%lyricsfile%"%haslyrics% -T "ALBUMARTIST=%albumartist%" -T "DISCNUMBER=%cdnumber%" -T "TOTALDISCS=%totalcds%" -T "TOTALTRACKS=%numtracks%" -T "COMMENT=%comment%" %source% -o %dest%

TOC of the extracted CD

Track | Start | Length | Start sector | End sector
––––––––––––––––––––––––––––-
1 | 0:00.00 | 7:29.35 | 0 | 33709
2 | 7:29.35 | 4:51.33 | 33710 | 55567
3 | 12:20.68 | 6:43.35 | 55568 | 85827
4 | 19:04.28 | 10:33.60 | 85828 | 133362
5 | 29:38.13 | 7:22.15 | 133363 | 166527
6 | 37:00.28 | 4:33.22 | 166528 | 187024
7 | 41:33.50 | 7:33.35 | 187025 | 221034
8 | 49:07.10 | 5:39.23 | 221035 | 246482
9 | 54:46.33 | 4:52.52 | 246483 | 268434

Range status and errors

Selected range

Filename C:Documents and SettingsМарияРабочий столTEMPMozartCD 2Mozart – Piano Trios (Complete) – The Mozartean Players (HM 1991) (Disc 2).wav

Peak level 56.0 %
Extraction speed 4.4 X
Range quality 100.0 %
Copy CRC A7022D38
Copy OK

No errors occurred

AccurateRip summary

Track 1 accurately ripped (confidence 3) [9CCD9488] (AR v1)
Track 2 accurately ripped (confidence 3) [601794CF] (AR v1)
Track 3 accurately ripped (confidence 3) [FF7358AC] (AR v1)
Track 4 accurately ripped (confidence 3) [3A51B211] (AR v1)
Track 5 accurately ripped (confidence 3) [72F9D276] (AR v1)
Track 6 accurately ripped (confidence 3) [F5CB7FC5] (AR v1)
Track 7 accurately ripped (confidence 3) [3C5BF019] (AR v1)
Track 8 accurately ripped (confidence 3) [2F56A06B] (AR v1)
Track 9 accurately ripped (confidence 3) [BB5BC9DC] (AR v1)

All tracks accurately ripped

End of status report

==== Log checksum 22629CB9C20CC2C02C9B8DC0DBB83803B4E2AEE18FF74441D7E84B0A26C3F657 ====

CUETools Log
[CUETools log; Date: 12.02.2017 21:52:39; Version: 2.1.5]
[CTDB TOCID: Jm9QjTgIIi9gBUjqD5yYCDjhj8s-] found.
Track | CTDB Status
1 | (29/29) Accurately ripped
2 | (29/29) Accurately ripped
3 | (29/29) Accurately ripped
4 | (29/29) Accurately ripped
5 | (29/29) Accurately ripped
6 | (29/29) Accurately ripped
7 | (29/29) Accurately ripped
8 | (29/29) Accurately ripped
9 | (28/29) Accurately ripped
[AccurateRip ID: 001554d7-009bffd4-7e0dfb09] found.
Track [ CRC | V2 ] Status
01 [9ccd9488|8db7facd] (03+06/46) Accurately ripped
02 [601794cf|41d43ee8] (03+06/45) Accurately ripped
03 [ff7358ac|086902f1] (03+06/45) Accurately ripped
04 [3a51b211|6c0b1948] (03+06/45) Accurately ripped
05 [72f9d276|368ad94f] (03+06/44) Accurately ripped
06 [f5cb7fc5|6801a4dc] (03+06/44) Accurately ripped
07 [3c5bf019|a3aefded] (03+06/45) Accurately ripped
08 [2f56a06b|03e3ab52] (03+06/45) Accurately ripped
09 [bb5bc9dc|e1dc43f1] (03+06/45) Accurately ripped
Offsetted by 5:
01 [0c4636bd] (07/46) Accurately ripped
02 [ca0801ee] (07/45) Accurately ripped
03 [24d3fe27] (07/45) Accurately ripped
04 [e5258726] (07/45) Accurately ripped
05 [cb5b6f8c] (07/44) Accurately ripped
06 [ef2089f4] (07/44) Accurately ripped
07 [59fb50c3] (07/45) Accurately ripped
08 [8e02a39a] (07/45) Accurately ripped
09 [ef05c793] (07/45) Accurately ripped
Offsetted by 669:
01 [22a33d59] (05/46) Accurately ripped
02 [bab6efb4] (05/45) Accurately ripped
03 [0b90c6d6] (05/45) Accurately ripped
04 [b13eaf13] (05/45) Accurately ripped
05 [1b570a89] (05/44) Accurately ripped
06 [05c81fdf] (05/44) Accurately ripped
07 [dce23f57] (05/45) Accurately ripped
08 [57c52029] (05/45) Accurately ripped
09 [83be6d2f] (05/45) Accurately ripped
Offsetted by -414:
01 [47e5b643] (04/46) Accurately ripped
02 [249a9d3c] (03/45) Accurately ripped
03 [cb45ed4a] (03/45) Accurately ripped
04 [ccf9c883] (03/45) Accurately ripped
05 [82c65524] (02/44) Accurately ripped
06 [5cbc96ee] (02/44) Accurately ripped
07 [6bd4ef0d] (03/45) Accurately ripped
08 [d857c2b7] (03/45) Accurately ripped
09 [04c4f65b] (00/45) No match (V2 was not tested)

Track Peak [ CRC32 ] [W/O NULL] [ LOG ]
– 55,9 [A7022D38] [13BB2993] CRC32
01 41,3 [70C71056] [8DF64775]
02 31,6 [937919C0] [D875005B]
03 47,9 [C443E472] [4A74CFC6]
04 55,9 [B8223234] [8D16D79D]
05 37,8 [0F09CC4A] [4BAF41B9]
06 38,1 [7214D626] [6D487C21]
07 35,0 [CA492998] [4D9C624A]
08 21,2 [BC9CB8A0] [73761D9A]
09 30,7 [14EB0057] [63732858]

Performers:
The Mozartean Players:
Steven Lubin, fortepiano
Stanley Ritchie, classical violin
Myron Lutzke, classical cello

Thanks to the Original ripper (unknown)!

Download:

The Mozartean Players – Mozart: Complete Piano Trios (2006) Download, Warez, DDL, Free, Full Album, Torrent, Legal.

Download