The Moody Blues – Long Distance Voyager (1981) [2008, Japan SHM-CD] Re-up | ViralVideoPk

Daily Dose of Free Downloads

The Moody Blues – Long Distance Voyager (1981) [2008, Japan SHM-CD] Re-up

Download

The Moody Blues - Long Distance Voyager (1981) [2008, Japan SHM-CD] Re-up

The Moody Blues – Long Distance Voyager (1981) [2008, Japan SHM-CD]
Progressive/Art/Symphonic Rock | XLD Rip | Flac (Image) + Cue + Log | MP3 CBR 320Kbps | 11 tracks
Scans(Jpg 300dpi) Included | ~385 + 147 Mb
Universal Music K.K. | UICY-93720

A regular fixture on the pop charts throughout the ’70s, the Moody Blues roared into the ’80s with this tremendously successful record. In fact, the album sounds only slightly different than its predecessors; the synthesizer textures are heavier (thanks to former Yes keyboardist Patrick Moraz), but the band’s flair for catchy, melodic compositions is still very much in evidence. In retrospect, songs like "The Voice," "Talking Out of Turn" and "In My World," while solid, don’t exactly measure up to such all-time Moodies classics like "Ride My See-Saw" or "Tuesday Afternoon." Still, this is probably the last truly consistent album the band ever made.

–Dan Epstein
The Moody Blues - Long Distance Voyager (1981) [2008, Japan SHM-CD] Re-up

The Moody Blues Biography:

Although they’re best known today for their lush, lyrically and musically profound (some would say bombastic) psychedelic-era albums and singles, the Moody Blues started out as one of the better R&B based combos of the British Invasion. The Moody Blues’ history began in Birmingham, England, where one of the more successful bands during that time was El Riot and the Rebels, co-founded by Ray Thomas (harmonica, vocals) and Mike Pinder (keyboards, vocals). Pinder left the band, first for a gig with Jackie Lynton and then a stint in the Army. In May of 1963, he and Thomas reunited under the auspices of the Krew Cats. They were good enough to get overseas bookings in Germany, where English rock bands were the rage. Upon their return to Birmingham in November of 1963, the entire English musical landscape was occupied by 250 groups, all of them vying for gigs in perhaps a dozen clubs. Thomas and Pinder decided to try and go professional, recruiting members from some of the best groups working in Birmingham. This included Denny Laine (vocals, guitar), Graeme Edge (drums), and Clint Warwick (bass, vocals). The Moody Blues made their debut in Birmingham in May of 1964, and quickly earned the notice and later the services of manager Tony Secunda. A major tour was quickly booked, and the band landed an engagement at the Marquee Club, which resulted in a contract with England’s Decca Records less than six months after their formation. The group’s first single, "Steal Your Heart Away," released in September of 1964, didn’t touch the British charts.

Their second single "Go Now," released in November of 1964, fulfilled every expectation and more, reaching number one in England; in America, it peaked at number 10. Following it up was easier said than done. Despite their fledgling songwriting efforts and the access they had to American demos, this version of the Moody Blues never came up with another single success. By the end of the spring of 1965, the frustration was palpable within the band. The group decided to make their fourth single, "From the Bottom of My Heart," an experiment with a different sound. Unfortunately, the single only reached number 22 on the British charts following its release in May of 1965. Ultimately, the grind of touring coupled with the strains facing the group, became too much for Warwick, who exited in the spring of 1966, and by August of 1966 Laine had left as well. Warwick was replaced by John Lodge. His introduction to the band was followed in late 1966 by the addition of Justin Hayward.

The reconstituted Moody Blues set about keeping afloat financially, mostly playing in Europe, recording the occasional single. Their big break came from Deram Records, an imprint of their Decca label, which in 1967 decided that it needed a long-playing record to promote its new "Deramic Stereo." The Moody Blues were picked for the proposed project, a rock version of Dvorak’s New World Symphony, and immediately convinced the staff producer and the engineer to abandon the source material and permit the group to use a series of its own compositions that depicted an archetypal "day," from morning to night. Using the tracks laid down by the band, and orchestrated by conductor Peter Knight, the resulting album Days of Future Passed became a landmark in the band’s history. The mix of rock and classical sounds was new, and at first puzzled the record company, but eventually the record was issued. This album, and its singles "Nights in White Satin" and "Tuesday Afternoon," hooked directly into the musical sides of the Summer of Love and its aftermath. In Search of the Lost Chord (1968) abandoned the orchestra in favor of the Mellotron, which quickly became a part of their signature sound.

By the time of 1969’s To Our Children’s Children’s Children, the group found themselves painted into something of a corner. Working in the studio with the process of overdubbing, they’d created albums that were essentially the work of 20 or 30 Moody Blues. Beginning with A Question of Balance (1970), the group made the decision to record albums that they could play in concert, reducing their reliance on overdubbing and toughening up their sound. By the release of Seventh Sojourn (1972), the strain of touring and recording steadily for five years was beginning to take its toll, and following an extended international tour, the band decided to take a break from working together, which ultimately lasted five years. During this era, Hayward and Lodge recorded a very successful duet album, Blue Jays (1975), and all five members did solo albums. By 1977, however, the group members had made the decision to reunite, a process complicated by the fact that Pinder had moved to California during that period. Although all five participated in the resulting album, Octave (1978), there were stresses during its recording, and Pinder was ultimately unhappy enough with the LP to decline to tour with the band. The reunion tour was a success, with Patrick Moraz brought in to replace Pinder on the keyboards, and the album topped the charts.

The group’s follow-up record, Long Distance Voyager (1981), was even more popular, though by this time a schism was beginning to develop between the band and the critical community. Although they continued to reach the middle levels of the charts, and even ascended reasonably close to the top with the Hayward single "In Your Wildest Dreams" (1986), the Moody Blues were no longer anywhere near the cutting edge of music. By the end of the 1980s, they were perceived as a nostalgia act, albeit one with a huge audience. In 1994, a four-CD set called Time Traveller was released. A new studio effort, Strange Times, followed in 1999 and Live at the Royal Albert Hall 2000 followed a year later.

In the spring of 1997, PolyGram released remastered and upgraded versions of all seven of the group’s classic late 1960’s/early 1970’s albums, with dramatically improved sound and new notes featuring recollections by the group members. Anyone owning the Mobile Fidelity audiophile CD versions can probably skip these unless they need the notes, but owners of the older Polydor CDs should seriously consider upgrading.

~ Bruce Eder, All Music Guide

The Moody Blues – Long Distance Voyager (1981):

The Moody Blues - Long Distance Voyager (1981) [2008, Japan SHM-CD] Re-up

Tracklist:

01. The Voice 5:22
02. Talking Out of Turn 7:20
03. Gemini Dream 4:10
04. In My World 7:22
05. Meanwhile 4:09
06. 22,000 Days 5:26
07. Nervous 5:46
08. Painted Smile 3:19
09. Reflective Smile 0:36
10. Veteran Cosmic Rocker 3:19
11. The Voice (Single Edit)

Personnel:

Justin Hayward – vocals, guitar
John Lodge – vocals, bass guitar
Ray Thomas – vocals, flute, harmonica
Graeme Edge – drums
Patrick Moraz – keyboards
B.J. Cole – pedal steel guitar on "In My World"

Additional personnel:

Melvyn Abrahams – mastering
Cream – design, illustrations
Pip Williams – producer, string arrangements
Greg Jackman – engineer, mixing
Norman Goodman – engineer, mixing

XLD Log
X Lossless Decoder version 20100518 (120.3)
XLD extraction logfile from 2010-05-18 18:02:14 +0600
The Moody Blues / Long Distance Voyager
Used drive : OPTIARC DVD RW AD-5670S (revision 2AHH)
Use cdparanoia mode : YES (CDParanoia III 10.2 engine)
Disable audio cache : OK for the drive with cache less than 2750KB
Make use of C2 pointers : NO
Read offset correction : 48
Max retry count : 100
TOC of the extracted CD
Track | Start | Length | Start sector | End sector
––––––––––––––––––––––––––––-
1 | 00:00:00 | 05:17:55 | 0 | 23829
2 | 05:17:55 | 07:19:50 | 23830 | 56804
3 | 12:37:30 | 04:11:29 | 56805 | 75658
4 | 16:48:59 | 07:21:67 | 75659 | 108800
5 | 24:10:51 | 04:08:40 | 108801 | 127440
6 | 28:19:16 | 05:27:46 | 127441 | 152011
7 | 33:46:62 | 05:46:06 | 152012 | 177967
8 | 39:32:68 | 03:17:66 | 177968 | 192808
9 | 42:50:59 | 00:38:25 | 192809 | 195683
10 | 43:29:09 | 03:18:15 | 195684 | 210548
11 | 46:47:24 | 04:17:21 | 210549 | 229844
Track 01
Filename : /Users/gubarenko/Desktop/The Moody Blues – Long Distance Voyager/01 – The Voice.flac
Pre-gap length : 00:02:00
CRC32 hash (test run) : 865B76B3
CRC32 hash : 865B76B3
CRC32 hash (skip zero) : 23F92A14
AccurateRip signature : 5A81884E
->Accurately ripped! (confidence 6)
Statistics
Read error : 0
Skipped (treated as error) : 0
Edge jitter error (maybe fixed) : 0
Atom jitter error (maybe fixed) : 0
Drift error (maybe fixed) : 0
Dropped bytes error (maybe fixed) : 0
Duplicated bytes error (maybe fixed) : 0
Inconsistency in error sectors : 0
Track 02
Filename : /Users/gubarenko/Desktop/The Moody Blues – Long Distance Voyager/02 – Talking Out Of Turn.flac
Pre-gap length : 00:01:13
CRC32 hash (test run) : 83AD8BC6
CRC32 hash : 83AD8BC6
CRC32 hash (skip zero) : 84D754A2
AccurateRip signature : 2305A0CE
->Accurately ripped! (confidence 6)
Statistics
Read error : 0
Skipped (treated as error) : 0
Edge jitter error (maybe fixed) : 0
Atom jitter error (maybe fixed) : 0
Drift error (maybe fixed) : 0
Dropped bytes error (maybe fixed) : 0
Duplicated bytes error (maybe fixed) : 0
Inconsistency in error sectors : 0
Track 03
Filename : /Users/gubarenko/Desktop/The Moody Blues – Long Distance Voyager/03 – Gemini Dream.flac
CRC32 hash (test run) : EBE4532D
CRC32 hash : EBE4532D
CRC32 hash (skip zero) : B3AE4F42
AccurateRip signature : C7DB95EB
->Accurately ripped! (confidence 6)
Statistics
Read error : 0
Skipped (treated as error) : 0
Edge jitter error (maybe fixed) : 0
Atom jitter error (maybe fixed) : 0
Drift error (maybe fixed) : 0
Dropped bytes error (maybe fixed) : 0
Duplicated bytes error (maybe fixed) : 0
Inconsistency in error sectors : 0
Track 04
Filename : /Users/gubarenko/Desktop/The Moody Blues – Long Distance Voyager/04 – In My World.flac
Pre-gap length : 00:01:63
CRC32 hash (test run) : 13C0212D
CRC32 hash : 13C0212D
CRC32 hash (skip zero) : 89AA42C2
AccurateRip signature : 55B2C9EC
->Accurately ripped! (confidence 6)
Statistics
Read error : 0
Skipped (treated as error) : 0
Edge jitter error (maybe fixed) : 0
Atom jitter error (maybe fixed) : 0
Drift error (maybe fixed) : 0
Dropped bytes error (maybe fixed) : 0
Duplicated bytes error (maybe fixed) : 0
Inconsistency in error sectors : 0
Track 05
Filename : /Users/gubarenko/Desktop/The Moody Blues – Long Distance Voyager/05 – Meanwhile.flac
Pre-gap length : 00:01:63
CRC32 hash (test run) : 429C18C3
CRC32 hash : 429C18C3
CRC32 hash (skip zero) : 5E61D09C
AccurateRip signature : 902BA444
->Accurately ripped! (confidence 6)
Statistics
Read error : 0
Skipped (treated as error) : 0
Edge jitter error (maybe fixed) : 0
Atom jitter error (maybe fixed) : 0
Drift error (maybe fixed) : 0
Dropped bytes error (maybe fixed) : 0
Duplicated bytes error (maybe fixed) : 0
Inconsistency in error sectors : 0
Track 06
Filename : /Users/gubarenko/Desktop/The Moody Blues – Long Distance Voyager/06 – 22,000 Days.flac
CRC32 hash (test run) : 8C4ABFB7
CRC32 hash : 8C4ABFB7
CRC32 hash (skip zero) : 05D71013
AccurateRip signature : 24E2D456
->Accurately ripped! (confidence 6)
Statistics
Read error : 0
Skipped (treated as error) : 0
Edge jitter error (maybe fixed) : 0
Atom jitter error (maybe fixed) : 0
Drift error (maybe fixed) : 0
Dropped bytes error (maybe fixed) : 0
Duplicated bytes error (maybe fixed) : 0
Inconsistency in error sectors : 0
Track 07
Filename : /Users/gubarenko/Desktop/The Moody Blues – Long Distance Voyager/07 – Nervous.flac
CRC32 hash (test run) : D6F56287
CRC32 hash : D6F56287
CRC32 hash (skip zero) : C26CBBAB
AccurateRip signature : 991E8C68
->Accurately ripped! (confidence 6)
Statistics
Read error : 0
Skipped (treated as error) : 0
Edge jitter error (maybe fixed) : 0
Atom jitter error (maybe fixed) : 0
Drift error (maybe fixed) : 0
Dropped bytes error (maybe fixed) : 0
Duplicated bytes error (maybe fixed) : 0
Inconsistency in error sectors : 0
Track 08
Filename : /Users/gubarenko/Desktop/The Moody Blues – Long Distance Voyager/08 – Painted Smile.flac
Pre-gap length : 00:00:73
CRC32 hash (test run) : F1A222BC
CRC32 hash : F1A222BC
CRC32 hash (skip zero) : 5D200CA0
AccurateRip signature : 94056D35
->Accurately ripped! (confidence 6)
Statistics
Read error : 0
Skipped (treated as error) : 0
Edge jitter error (maybe fixed) : 0
Atom jitter error (maybe fixed) : 0
Drift error (maybe fixed) : 0
Dropped bytes error (maybe fixed) : 0
Duplicated bytes error (maybe fixed) : 0
Inconsistency in error sectors : 0
Track 09
Filename : /Users/gubarenko/Desktop/The Moody Blues – Long Distance Voyager/09 – Reflective Smile.flac
CRC32 hash (test run) : FAA58D6E
CRC32 hash : FAA58D6E
CRC32 hash (skip zero) : BF56A536
AccurateRip signature : 4453142A
->Accurately ripped! (confidence 6)
Statistics
Read error : 0
Skipped (treated as error) : 0
Edge jitter error (maybe fixed) : 0
Atom jitter error (maybe fixed) : 0
Drift error (maybe fixed) : 0
Dropped bytes error (maybe fixed) : 0
Duplicated bytes error (maybe fixed) : 0
Inconsistency in error sectors : 0
Track 10
Filename : /Users/gubarenko/Desktop/The Moody Blues – Long Distance Voyager/10 – Veteran Cosmic Rocker.flac
CRC32 hash (test run) : 9D8ACBF6
CRC32 hash : 9D8ACBF6
CRC32 hash (skip zero) : 332E4A9C
AccurateRip signature : 96C063E9
->Accurately ripped! (confidence 6)
Statistics
Read error : 0
Skipped (treated as error) : 0
Edge jitter error (maybe fixed) : 0
Atom jitter error (maybe fixed) : 0
Drift error (maybe fixed) : 0
Dropped bytes error (maybe fixed) : 0
Duplicated bytes error (maybe fixed) : 0
Inconsistency in error sectors : 0
Track 11
Filename : /Users/gubarenko/Desktop/The Moody Blues – Long Distance Voyager/11 – The Voice (Single Edit).flac
Pre-gap length : 00:04:62
CRC32 hash (test run) : 0AB9F857
CRC32 hash : 0AB9F857
CRC32 hash (skip zero) : F9CD17DA
AccurateRip signature : 802E1601
->Accurately ripped! (confidence 5)
Statistics
Read error : 0
Skipped (treated as error) : 0
Edge jitter error (maybe fixed) : 0
Atom jitter error (maybe fixed) : 0
Drift error (maybe fixed) : 0
Dropped bytes error (maybe fixed) : 0
Duplicated bytes error (maybe fixed) : 0
Inconsistency in error sectors : 0
No errors occurred
End of status report

Audiochecker Log
AUDIOCHECKER v2.0 beta (build 457) – by Dester – opdester@freemail.hu
~~~~~~~~~~~~~~~~~~~~~~~~~~~~~~~~~~
-=== DO NOT EDIT THIS FILE! ===-

Path: …The Moody Blues – Long Distance Voyager

01 -=- 01 – The Voice.flac -=- CDDA (100%)
02 -=- 02 – Talking Out Of Turn.flac -=- CDDA (100%)
03 -=- 03 – Gemini Dream.flac -=- CDDA (100%)
04 -=- 04 – In My World.flac -=- CDDA (100%)
05 -=- 05 – Meanwhile.flac -=- CDDA (100%)
06 -=- 06 – 22,000 Days.flac -=- CDDA (100%)
07 -=- 07 – Nervous.flac -=- CDDA (100%)
08 -=- 08 – Painted Smile.flac -=- CDDA (100%)
09 -=- 09 – Reflective Smile.flac -=- CDDA (100%)
10 -=- 10 – Veteran Cosmic Rocker.flac -=- CDDA (100%)
11 -=- 11 – The Voice (Single Edit).flac -=- CDDA (100%)

Summary 100,00% CDDA

225519172

All thanks goes to eugubarenko and mgubarenko

Download The Moody Blues – Long Distance Voyager (1981):

The Moody Blues – Long Distance Voyager (1981) [2008, Japan SHM-CD] Re-up Download, Warez, DDL, Free, Full Album, Torrent, Legal.

Download


  • Recent Posts

  • Recent Tags