The Mizell Brothers – Mizell (2005) {Blue Note}

Download
The Mizell Brothers - Mizell (2005) {Blue Note}

The Mizell Brothers – Mizell (2005) {Blue Note}
EAC Rip | FLAC with CUE and log | scans | 510 mb
MP3 CBR 320kbps | RAR | 182 mb
Genre: jazz, jazz funk

Mizell is a 2005 compilation album credited to The Mizell Brothers. Fonce & Larry Mizell were brothers who played on tons of jazz recordings on Blue Note Records in the 1970’s and these are some of the best, featuring work by Donald Byrd, Gary Bartz and Bobbi Humphrey. This was released by Blue Note.

The Mizell Brothers - Mizell (2005) {Blue Note}

1. Donald Byrd – Wind Parade
2. Rance Allen – Reason To Survive
3. Donald Byrd – Change
4. Bobbi Humphrey – Uno Esta
5. Donald Byrd – Design A Nation
6. Donald Byrd – Lansanna’s Priestess
7. Donald Byrd – (Fallin’ Like) Dominoes
8. Bobbi Humphrey – Blacks And Blues
9. Gary Bartz – Funked Up
10. Mizellstory – N R Time
11. Donald Byrd – Think Twice (Mizell Brothers 2005 Remix)

Produced by Fonce & Larry Mizell
CO-producer: Gamall Awad
Executive Producer: Eli Wolf
Mastered by Ron McMaster

EAC Log
EAC extraction logfile from 25. June 2017, 17:16 for CD
Various / Mizell

Used drive : TSSTcorpDVD+-RW TS-H653B Adapter: 2 ID: 0
Read mode : Secure with NO C2, accurate stream, disable cache
Read offset correction : 6
Overread into Lead-In and Lead-Out : No

Used output format : Internal WAV Routines
44.100 Hz; 16 Bit; Stereo

Other options :
Fill up missing offset samples with silence : Yes
Delete leading and trailing silent blocks : No
Native Win32 interface for Win NT & 2000

Track 1
Filename C:Documents and SettingsDesktopFLAC’s6The Mizell Brothers – Mizell (2005) [FLAC] {Blue Note}1 – Wind Parade.wav

Pre-gap length 0:00:02.00

Peak level 96.6 %
Track quality 100.0 %
Test CRC 0EA1CDBA
Copy CRC 0EA1CDBA
Copy OK

Track 2
Filename C:Documents and SettingsDesktopFLAC’s6The Mizell Brothers – Mizell (2005) [FLAC] {Blue Note}2 – Reason To Survive.wav

Pre-gap length 0:00:01.06

Peak level 100.0 %
Track quality 100.0 %
Test CRC 225576AB
Copy CRC 225576AB
Copy OK

Track 3
Filename C:Documents and SettingsDesktopFLAC’s6The Mizell Brothers – Mizell (2005) [FLAC] {Blue Note}3 – Change.wav

Peak level 91.2 %
Track quality 99.9 %
Test CRC 309CB3C9
Copy CRC 309CB3C9
Copy OK

Track 4
Filename C:Documents and SettingsDesktopFLAC’s6The Mizell Brothers – Mizell (2005) [FLAC] {Blue Note}4 – Uno Esta.wav

Pre-gap length 0:00:01.05

Peak level 94.4 %
Track quality 100.0 %
Test CRC 34DE63C6
Copy CRC 34DE63C6
Copy OK

Track 5
Filename C:Documents and SettingsDesktopFLAC’s6The Mizell Brothers – Mizell (2005) [FLAC] {Blue Note}5 – Design A Nation.wav

Peak level 98.8 %
Track quality 100.0 %
Test CRC D1A51203
Copy CRC D1A51203
Copy OK

Track 6
Filename C:Documents and SettingsDesktopFLAC’s6The Mizell Brothers – Mizell (2005) [FLAC] {Blue Note}6 – Lansanna’s Priestess.wav

Peak level 98.8 %
Track quality 100.0 %
Test CRC F2940CA7
Copy CRC F2940CA7
Copy OK

Track 7
Filename C:Documents and SettingsDesktopFLAC’s6The Mizell Brothers – Mizell (2005) [FLAC] {Blue Note}7 – (Fallin’ Like) Dominoes.wav

Pre-gap length 0:00:02.10

Peak level 98.8 %
Track quality 100.0 %
Test CRC 7DC6A314
Copy CRC 7DC6A314
Copy OK

Track 8
Filename C:Documents and SettingsDesktopFLAC’s6The Mizell Brothers – Mizell (2005) [FLAC] {Blue Note}8 – Blacks And Blues.wav

Pre-gap length 0:00:00.97

Peak level 98.8 %
Track quality 100.0 %
Test CRC C4CFF197
Copy CRC C4CFF197
Copy OK

Track 9
Filename C:Documents and SettingsDesktopFLAC’s6The Mizell Brothers – Mizell (2005) [FLAC] {Blue Note}9 – Funked Up.wav

Peak level 95.5 %
Track quality 100.0 %
Test CRC C6812D94
Copy CRC C6812D94
Copy OK

Track 10
Filename C:Documents and SettingsDesktopFLAC’s6The Mizell Brothers – Mizell (2005) [FLAC] {Blue Note}10 – N R Time.wav

Pre-gap length 0:00:01.06

Peak level 98.9 %
Track quality 100.0 %
Test CRC 21090B9D
Copy CRC 21090B9D
Copy OK

Track 11
Filename C:Documents and SettingsDesktopFLAC’s6The Mizell Brothers – Mizell (2005) [FLAC] {Blue Note}11 – Think Twice (Mizell Brothers 2005 Remix).wav

Pre-gap length 0:00:01.37

Peak level 92.3 %
Track quality 100.0 %
Test CRC 49C26AA3
Copy CRC 49C26AA3
Copy OK

No errors occured

End of status report

The Mizell Brothers - Mizell (2005) {Blue Note}

The Mizell Brothers – Mizell (2005) {Blue Note} Download, Warez, DDL, Free, Full Album, Torrent, Legal.

Download