The Master's Apprentices: CD & DVD Collection (1967 – 2006)

Download
The Master's Apprentices: CD & DVD Collection (1967 - 2006)

The Master’s Apprentices: CD & DVD Collection (1967 – 2006)
EAC | Flac(Image) + Cue + Log & MP3 CBR 320Kbps
4CD | Label: Various | ~ 1410 or 523 Mb | Scans(jpg) -> 35 Mb
DVD9: PAL 16:9 (720×576) VBR | AC3, 2 ch / LPCM, 2 ch -> 7.46 Gb
Garage Psychedelic Rock

One could easily make the case for designating the Masters Apprentices as the best Australian rock band of the ’60s. Featuring singer Jim Keays and songwriter/rhythm guitarist Mick Bower, the band’s earliest recordings combined the gritty R&B/rock of Brits like the Pretty Things with the minor-key melodies of the Yardbirds. The compelling "Wars or Hands of Time" and the dreamy psychedelia of "Living in a Child’s Dream" were undiscovered classics, although the latter was a Top Ten hit in Australia. Bower left the group after suffering a nervous breakdown in late 1967, and the Masters grew steadily less interesting, moving from flower pop and hard rock to progressive and acoustic sounds. Plagued by instability (undergoing eight personnel changes between 1966 and 1968), the group moved to England in the early ’70s, achieving some cult success with progressive rock albums before breaking up in 1972.

by Richie Unterberger, allmusic

The Master's Apprentices: CD & DVD Collection (1967 - 2006)

The Master’s Apprentices: CD & DVD Collection (1967 – 2006):

The Master's Apprentices: CD & DVD Collection (1967 - 2006)

CD01: The Master’s Apprentices – Masterpiece (1970)
EAC | Flac(Image) + Cue + Log & MP3 CBR 320Kbps
1999 | Ascension Records, ANCD 005 | ~ 248 or 83 Mb | Scans(jpg) -> 2.92 Mb
Garage Psychedelic Rock

The Masters Apprentices had changed a lot in both personnel and style by the time they issued their second LP, two and a half years after their first. It’s a respectable but oddly schizophrenic effort, finding them searching for an identity with competent forays into hard rock, early progressive rock, and poppy folk-rock, with orchestral instrumental links between many of the tracks adding to the confusion (as there’s no concept driving the LP). "A Dog, a Siren and Memories" ranks as the most accurate Simon & Garfunkel imitation ever.

by Richie Unterberger, allmusic

Tracklist:

01. Masterpiece
02. Who Do You Think You Are
03. Barefoot When I Saw Her
04. St. John’s Wood
05. 5:10 Man
06. A Dog, A Siren & Memories
07. Linda, Linda
08. Isabella
09. Captivating Voice
10. Piece Of Me
11. Titanic
12. How I Love You

EAC Log
Exact Audio Copy V1.1 from 23. June 2015

EAC extraction logfile from 21. July 2017, 19:23

The Master’s Apprentices / Masterpiece

Used drive : TSSTcorpCDDVDW SH-224DB Adapter: 1 ID: 0

Read mode : Secure
Utilize accurate stream : Yes
Defeat audio cache : Yes
Make use of C2 pointers : No

Read offset correction : 6
Overread into Lead-In and Lead-Out : No
Fill up missing offset samples with silence : Yes
Delete leading and trailing silent blocks : No
Null samples used in CRC calculations : Yes
Used interface : Native Win32 interface for Win NT & 2000

Used output format : User Defined Encoder
Selected bitrate : 1024 kBit/s
Quality : High
Add ID3 tag : No
Command line compressor : C:Program Files (x86)Exact Audio Copywin64flac.exe
Additional command line options : -8 -V -T "ARTIST=%artist%" -T "TITLE=%title%" -T "ALBUM=%albumtitle%" -T "DATE=%year%" -T "TRACKNUMBER=%tracknr%" -T "GENRE=%genre%" -T "COMMENT=%comment%" %source% -o %dest%

TOC of the extracted CD

Track | Start | Length | Start sector | End sector
––––––––––––––––––––––––––––-
1 | 0:00.00 | 4:02.31 | 0 | 18180
2 | 4:02.31 | 3:06.63 | 18181 | 32193
3 | 7:09.19 | 3:57.41 | 32194 | 50009
4 | 11:06.60 | 1:59.61 | 50010 | 58995
5 | 13:06.46 | 2:34.12 | 58996 | 70557
6 | 15:40.58 | 3:10.74 | 70558 | 84881
7 | 18:51.57 | 2:42.58 | 84882 | 97089
8 | 21:34.40 | 2:35.15 | 97090 | 108729
9 | 24:09.55 | 2:03.21 | 108730 | 117975
10 | 26:13.01 | 2:14.59 | 117976 | 128084
11 | 28:27.60 | 3:32.34 | 128085 | 144018
12 | 32:00.19 | 3:07.26 | 144019 | 158069

Range status and errors

Selected range

Filename F:Sket4erThe Master’s Apprentices – Masterpiece (1970) 1999The Master’s Apprentices – Masterpiece.wav

Peak level 96.6 %
Extraction speed 2.8 X
Range quality 100.0 %
Test CRC 3C905565
Copy CRC 3C905565
Copy OK

No errors occurred

AccurateRip summary

Track 1 cannot be verified as accurate (confidence 4) [D0D137E9], AccurateRip returned [9163883F] (AR v2)
Track 2 cannot be verified as accurate (confidence 4) [55B74CBA], AccurateRip returned [115D1B62] (AR v2)
Track 3 cannot be verified as accurate (confidence 4) [32E8B472], AccurateRip returned [BB73DE24] (AR v2)
Track 4 cannot be verified as accurate (confidence 4) [D87E6A94], AccurateRip returned [5BC1A201] (AR v2)
Track 5 cannot be verified as accurate (confidence 4) [E674BEF1], AccurateRip returned [2EEE5A8B] (AR v2)
Track 6 cannot be verified as accurate (confidence 4) [E942525D], AccurateRip returned [4285BC67] (AR v2)
Track 7 cannot be verified as accurate (confidence 4) [AA1B3563], AccurateRip returned [B24F31B2] (AR v2)
Track 8 cannot be verified as accurate (confidence 4) [A3EB58A9], AccurateRip returned [458FBEDA] (AR v2)
Track 9 cannot be verified as accurate (confidence 4) [F3D68380], AccurateRip returned [CD5B470D] (AR v2)
Track 10 cannot be verified as accurate (confidence 4) [3964F76A], AccurateRip returned [DFCA3AB8] (AR v2)
Track 11 cannot be verified as accurate (confidence 4) [2BE03AC2], AccurateRip returned [4B7B93F3] (AR v2)
Track 12 cannot be verified as accurate (confidence 4) [AA882E9F], AccurateRip returned [EBD4C7B3] (AR v2)

No tracks could be verified as accurate
You may have a different pressing from the one(s) in the database

End of status report

–– CUETools DB Plugin V2.1.6

[CTDB TOCID: xFudnl8GeftLzqd_Wv_kCqsGEdg-] found
Submit result: xFudnl8GeftLzqd_Wv_kCqsGEdg- has been confirmed
Track | CTDB Status
1 | (1/1) Accurately ripped
2 | (1/1) Accurately ripped
3 | (1/1) Accurately ripped
4 | (1/1) Accurately ripped
5 | (1/1) Accurately ripped
6 | (1/1) Accurately ripped
7 | (1/1) Accurately ripped
8 | (1/1) Accurately ripped
9 | (1/1) Accurately ripped
10 | (1/1) Accurately ripped
11 | (1/1) Accurately ripped
12 | (1/1) Accurately ripped

==== Log checksum 6E50729B96C54353B8BE9F10F305AD7890135DC914BCAD00AC5438E4C337E85B ====

* * *

The Master's Apprentices: CD & DVD Collection (1967 - 2006)

CD02: The Master’s Apprentices – Now That It’s Over (1974)
EAC | Flac(Image) + Cue + Log & MP3 CBR 320Kbps
1995 | EMI 8320032 | ~ 318 or 123 Mb | Scans(jpg) -> 4.12 Mb
Garage Psychedelic Rock

The Master’s Apprentices, along with Billy Thorpe and the Aztecs, were the two biggest Australian bands of the late 60s/early 70s. I cottoned onto the Masters slightly retrospectively, in 1980 I think. Hence my review of this compilation. The Masters dabbled in various styles – their earliest stuff reflected the O/S (overseas) trends of youthful psychedelia and, at times, some seriously twee sixties pop. This compilation covers their work from 69 to 72 when they absorbed the emerging genres of hard rock and heavy metal. Yes, this album has an innocence and naivity, even evincing at moments the ghost of the 1950s. Nevertheless, it’s all good. "Turn Up Your Radio" is truly exhilarating and was THE all-time favourite dance track in our loony hippie fringe scene on the cusp of the 70s/80s. "Death Of A king" and "Future Of Our Nation" are good songs which showcase a heavy metal sound that’s still kind of mellow – both songs have a similar message: revolution is in the air, but is it really going to improve things? The last track, "Thyme To Rhyme" deserves special mention: a single acoustic guitar backed by delightful mysterious whistling, sailing sound effects which gradually rise in the mix.. a wistful, truly unique song, quite beautiful.

A couple of the Master’s best songs are missing from this disc, including the early power pop ballad, "Wars Or Hands Of Time", my favourite Master’s track. But on the whole I think I would recommend this album.

by SandyMc, rateyourmusic

Tracklist:

01. Turn Up Your Radio
02. Because I Love You
03. Easy To Lie
04. I’m Your Satisfier
05. Death Of A King
06. 5.10 Man
07. Love Is
08. Rio de Camero
09. Michael
10. Future Of Our Nation (Live)
11. Southern Cross
12. How I Love You
13. Think About Tomorrow Today
14. Thyme To Rhyme

EAC Log
Exact Audio Copy V1.1 from 23. June 2015

EAC extraction logfile from 21. July 2017, 22:42

Masters’ Apprentices / Now That It’s Over

Used drive : TSSTcorpCDDVDW SH-224DB Adapter: 1 ID: 0

Read mode : Secure
Utilize accurate stream : Yes
Defeat audio cache : Yes
Make use of C2 pointers : No

Read offset correction : 6
Overread into Lead-In and Lead-Out : No
Fill up missing offset samples with silence : Yes
Delete leading and trailing silent blocks : No
Null samples used in CRC calculations : Yes
Used interface : Native Win32 interface for Win NT & 2000

Used output format : User Defined Encoder
Selected bitrate : 1024 kBit/s
Quality : High
Add ID3 tag : No
Command line compressor : C:Program Files (x86)Exact Audio Copywin64flac.exe
Additional command line options : -8 -V -T "ARTIST=%artist%" -T "TITLE=%title%" -T "ALBUM=%albumtitle%" -T "DATE=%year%" -T "TRACKNUMBER=%tracknr%" -T "GENRE=%genre%" -T "COMMENT=%comment%" %source% -o %dest%

TOC of the extracted CD

Track | Start | Length | Start sector | End sector
––––––––––––––––––––––––––––-
1 | 0:00.00 | 3:35.09 | 0 | 16133
2 | 3:35.09 | 4:33.16 | 16134 | 36624
3 | 8:08.25 | 4:31.67 | 36625 | 57016
4 | 12:40.17 | 3:19.63 | 57017 | 72004
5 | 16:00.05 | 3:14.05 | 72005 | 86559
6 | 19:14.10 | 2:35.22 | 86560 | 98206
7 | 21:49.32 | 4:15.38 | 98207 | 117369
8 | 26:04.70 | 3:19.68 | 117370 | 132362
9 | 29:24.63 | 3:52.70 | 132363 | 149832
10 | 33:17.58 | 4:28.48 | 149833 | 169980
11 | 37:46.31 | 4:57.40 | 169981 | 192295
12 | 42:43.71 | 3:10.67 | 192296 | 206612
13 | 45:54.63 | 3:24.08 | 206613 | 221920
14 | 49:18.71 | 2:46.04 | 221921 | 234374

Range status and errors

Selected range

Filename F:Sket4erMasters Apprentices ‎– Now That It’s Over (1974) 1995Masters’ Apprentices – Now That It’s Over.wav

Peak level 84.5 %
Extraction speed 3.1 X
Range quality 100.0 %
Test CRC ECEDDBC4
Copy CRC ECEDDBC4
Copy OK

No errors occurred

AccurateRip summary

Track 1 cannot be verified as accurate (confidence 6) [4A597CD4], AccurateRip returned [32AD76ED] (AR v2)
Track 2 cannot be verified as accurate (confidence 6) [C5CEDC9B], AccurateRip returned [B5E66F9A] (AR v2)
Track 3 cannot be verified as accurate (confidence 6) [4C67039D], AccurateRip returned [418F3C08] (AR v2)
Track 4 cannot be verified as accurate (confidence 6) [85CA9425], AccurateRip returned [71B7D83E] (AR v2)
Track 5 cannot be verified as accurate (confidence 6) [D4A4F383], AccurateRip returned [5506D4B0] (AR v2)
Track 6 cannot be verified as accurate (confidence 6) [5AB579A7], AccurateRip returned [D20A566E] (AR v2)
Track 7 cannot be verified as accurate (confidence 6) [EDFF3119], AccurateRip returned [CA069842] (AR v2)
Track 8 cannot be verified as accurate (confidence 6) [5D4D5148], AccurateRip returned [50C3B775] (AR v2)
Track 9 cannot be verified as accurate (confidence 6) [EB5C7BC9], AccurateRip returned [2DDACC00] (AR v2)
Track 10 cannot be verified as accurate (confidence 6) [F67FB044], AccurateRip returned [EF92D81E] (AR v2)
Track 11 cannot be verified as accurate (confidence 6) [5F763143], AccurateRip returned [247156BF] (AR v2)
Track 12 cannot be verified as accurate (confidence 6) [F5A1F812], AccurateRip returned [1F50CC5D] (AR v2)
Track 13 cannot be verified as accurate (confidence 6) [B75ADB3C], AccurateRip returned [40A12FCA] (AR v2)
Track 14 cannot be verified as accurate (confidence 6) [7BBFD08F], AccurateRip returned [D2EE6906] (AR v2)

No tracks could be verified as accurate
You may have a different pressing from the one(s) in the database

End of status report

–– CUETools DB Plugin V2.1.6

[CTDB TOCID: sax9qvE5slyGuOlv38fVX9ofnwQ-] found
Submit result: sax9qvE5slyGuOlv38fVX9ofnwQ- has been confirmed
Track | CTDB Status
1 | (6/6) Accurately ripped
2 | (6/6) Accurately ripped
3 | (6/6) Accurately ripped
4 | (6/6) Accurately ripped
5 | (6/6) Accurately ripped
6 | (6/6) Accurately ripped
7 | (6/6) Accurately ripped
8 | (6/6) Accurately ripped
9 | (6/6) Accurately ripped
10 | (6/6) Accurately ripped
11 | (6/6) Accurately ripped
12 | (6/6) Accurately ripped
13 | (6/6) Accurately ripped
14 | (6/6) Accurately ripped

==== Log checksum CC85523485795D6202A375CEFB293B279F11B9556093EA5141E451BB3A99A1BE ====

* * *

The Master's Apprentices: CD & DVD Collection (1967 - 2006)

CD03: The Master’s Apprentices – Choice Cuts `71 & Toast To Panama Red `72 (1998)
EAC | Flac(Image) + Cue + Log & MP3 CBR 320Kbps
Buy Or Die Records BOD 111 | ~ 491 or 180 Mb | Scans(jpg) -> 6.48 Mb
Garage Psychedelic Rock

Tracklist:

01. Rio De Camero
02. Michael
03. Easy To Lie
04. Because I Love You
05. Catty
06. Our Friend Owsley Stanley III
07. Death Of A King
08. Song For A Lost Gypsy
09. I’m Your Satisfier
10. Song For Joey – Part II
11. Answer Lies Beyond
12. Beneath The Sun
13. Games We Play – Part I
14. Games We Play – Part II
15. The Lesson So Listen
16. Love Is
17. Melodies Of St. Kilda
18. Southern Cross
19. Thyme To Rhyme

EAC Log
Exact Audio Copy V1.1 from 23. June 2015

EAC extraction logfile from 21. July 2017, 21:56

The Master’s Apprentices / Choice Cuts / Toast To Panama Red

Used drive : TSSTcorpCDDVDW SH-224DB Adapter: 1 ID: 0

Read mode : Secure
Utilize accurate stream : Yes
Defeat audio cache : Yes
Make use of C2 pointers : No

Read offset correction : 6
Overread into Lead-In and Lead-Out : No
Fill up missing offset samples with silence : Yes
Delete leading and trailing silent blocks : No
Null samples used in CRC calculations : Yes
Used interface : Native Win32 interface for Win NT & 2000

Used output format : User Defined Encoder
Selected bitrate : 1024 kBit/s
Quality : High
Add ID3 tag : No
Command line compressor : C:Program Files (x86)Exact Audio Copywin64flac.exe
Additional command line options : -8 -V -T "ARTIST=%artist%" -T "TITLE=%title%" -T "ALBUM=%albumtitle%" -T "DATE=%year%" -T "TRACKNUMBER=%tracknr%" -T "GENRE=%genre%" -T "COMMENT=%comment%" %source% -o %dest%

TOC of the extracted CD

Track | Start | Length | Start sector | End sector
––––––––––––––––––––––––––––-
1 | 0:00.00 | 3:19.28 | 0 | 14952
2 | 3:19.28 | 3:51.72 | 14953 | 32349
3 | 7:11.25 | 4:30.33 | 32350 | 52632
4 | 11:41.58 | 4:31.25 | 52633 | 72982
5 | 16:13.08 | 3:20.42 | 72983 | 88024
6 | 19:33.50 | 3:26.03 | 88025 | 103477
7 | 22:59.53 | 3:36.45 | 103478 | 119722
8 | 26:36.23 | 2:58.42 | 119723 | 133114
9 | 29:34.65 | 3:13.13 | 133115 | 147602
10 | 32:48.03 | 4:23.27 | 147603 | 167354
11 | 37:11.30 | 3:38.18 | 167355 | 183722
12 | 40:49.48 | 6:09.15 | 183723 | 211412
13 | 46:58.63 | 6:54.37 | 211413 | 242499
14 | 53:53.25 | 4:18.05 | 242500 | 261854
15 | 58:11.30 | 3:13.00 | 261855 | 276329
16 | 61:24.30 | 4:12.23 | 276330 | 295252
17 | 65:36.53 | 2:54.45 | 295253 | 308347
18 | 68:31.23 | 4:54.27 | 308348 | 330424
19 | 73:25.50 | 2:40.18 | 330425 | 342442

Range status and errors

Selected range

Filename F:Sket4erThe Master’s Apprentices – Choice Cuts + Toast To Panama Red (1971-72) 1998The Master’s Apprentices – Choice Cuts , Toast To Panama Red.wav

Peak level 98.0 %
Extraction speed 3.4 X
Range quality 100.0 %
Test CRC B379DC55
Copy CRC B379DC55
Copy OK

No errors occurred

AccurateRip summary

Track 1 cannot be verified as accurate (confidence 4) [3BC8086F], AccurateRip returned [023AA052] (AR v2)
Track 2 cannot be verified as accurate (confidence 4) [A71DA5B9], AccurateRip returned [A87A2453] (AR v2)
Track 3 cannot be verified as accurate (confidence 4) [92D9B155], AccurateRip returned [250E2AE9] (AR v2)
Track 4 cannot be verified as accurate (confidence 4) [AF1B8CC4], AccurateRip returned [1D4CDF24] (AR v2)
Track 5 cannot be verified as accurate (confidence 4) [6C716DC1], AccurateRip returned [EE6E920F] (AR v2)
Track 6 cannot be verified as accurate (confidence 4) [2022931B], AccurateRip returned [1F987251] (AR v2)
Track 7 cannot be verified as accurate (confidence 4) [971D9657], AccurateRip returned [40B6B87C] (AR v2)
Track 8 cannot be verified as accurate (confidence 4) [61387E86], AccurateRip returned [A2A84C09] (AR v2)
Track 9 cannot be verified as accurate (confidence 4) [F2BDCA7F], AccurateRip returned [C0B37E5F] (AR v2)
Track 10 cannot be verified as accurate (confidence 4) [81D64DE4], AccurateRip returned [E89826AF] (AR v2)
Track 11 cannot be verified as accurate (confidence 4) [934B8FBE], AccurateRip returned [1823999C] (AR v2)
Track 12 cannot be verified as accurate (confidence 4) [CAD9D09C], AccurateRip returned [40EA7EF8] (AR v2)
Track 13 cannot be verified as accurate (confidence 4) [3F178668], AccurateRip returned [FA9CD1F0] (AR v2)
Track 14 cannot be verified as accurate (confidence 4) [6C63681D], AccurateRip returned [794F232E] (AR v2)
Track 15 cannot be verified as accurate (confidence 4) [8AF8173A], AccurateRip returned [9C949028] (AR v2)
Track 16 cannot be verified as accurate (confidence 4) [A519841E], AccurateRip returned [45CA41DD] (AR v2)
Track 17 cannot be verified as accurate (confidence 4) [0EACEDD1], AccurateRip returned [F27F23FF] (AR v2)
Track 18 cannot be verified as accurate (confidence 4) [2CA2A659], AccurateRip returned [2AC115A9] (AR v2)
Track 19 cannot be verified as accurate (confidence 4) [60CAFD0C], AccurateRip returned [CC97516C] (AR v2)

No tracks could be verified as accurate
You may have a different pressing from the one(s) in the database

End of status report

–– CUETools DB Plugin V2.1.6

[CTDB TOCID: B8rr82a9l6d2QMbUK.6Lu4N0FHU-] found
Submit result: B8rr82a9l6d2QMbUK.6Lu4N0FHU- has been confirmed
Track | CTDB Status
1 | (10/10) Accurately ripped
2 | (10/10) Accurately ripped
3 | (10/10) Accurately ripped
4 | (10/10) Accurately ripped
5 | (10/10) Accurately ripped
6 | (10/10) Accurately ripped
7 | (10/10) Accurately ripped
8 | (10/10) Accurately ripped
9 | (10/10) Accurately ripped
10 | (10/10) Accurately ripped
11 | (10/10) Accurately ripped
12 | (10/10) Accurately ripped
13 | (10/10) Accurately ripped
14 | (10/10) Accurately ripped
15 | (10/10) Accurately ripped
16 | (10/10) Accurately ripped
17 | (10/10) Accurately ripped
18 | (10/10) Accurately ripped
19 | (10/10) Accurately ripped

==== Log checksum 8EF48DDA28B04947BEAAB939B43791F5FE28EDCE7DB6D5E8D9FA6E92AAA32967 ====

* * *

The Master's Apprentices: CD & DVD Collection (1967 - 2006)

CD04: The Master’s Apprentices – From Mustangs To Masters – First Year Apprentices (1967)
EAC | Flac(Image) + Cue + Log & MP3 CBR 320Kbps
2004 | Mustang Records MCD-1 | ~ 353 or 137 Mb | Scans(jpg) -> 21 Mb
Garage Psychedelic Rock

That later prog rock and "Wars or Hands of Time" type stuff is all good and nice but if you want to hear what The Master’s Apprentices were really all about, what made them so great, this is the album you need to hear. Recorded all in one night in a garage in April of 1966, this powerhouse set of lo-fi rock & roll standards shows that these guys were truly masters before they even really got going. Mick Bowers is on fire on the guitar and the rhythm guitar of Rick Morrison chugs along like there is no tomorrow. Technical limitations have rendered Jim Keays’ vocals a little murky but it does little to dampen the mood. 21 tracks is a hell of a set to go through without losing an ounce of steam. You’ve probably heard these songs a million times but you haven’t heard them done by the Masters in the true spirit of garage rock.

by yoyomama1, rateyourmusic.com

Tracklist:

01. Intro 00:12
02. Route 66 (Version 1) (Troup) 02:58
03. Little Girl (Morrison) 02:02
04. Too Much Monkey Business (Berry) 02:35
05. I’m Talking About You (Berry) 01:56
06. Wild Wild Party (Mustangs) 02:26
07. Cops And Robbers (Diddley) 03:32
08. Johnny B Goode (Berry) 02:27
09. John Street Blues (Mustangs) 03:22
10. Around And Around (Berry) 02:55
11. Long Tall Shorty (Covay, Abramson) 03:16
12. Dancing Girl (Diddley) 04:29
13. Play With Fire (Nanker Phelge) 02:37
14. Bright Lights, Big City (Reed) 02:16
15. It’s Gonna Work Out Fine (Lee, Seneca) 02:25
16. Gloria (Morrison) 02:42
17. Empty Heart (Nanker Phelge) 02:30
18. Carol (Berry) 02:34
19. Maybelline (Berry) 02:02
20. Not Fade Away (Hardin, Petty) 01:52
21. Got My Mojo Working (Foster) 02:55
22. Route 66 (Version 2) (Troup) 02:40

EAC Log
Exact Audio Copy V1.1 from 23. June 2015

EAC extraction logfile from 22. July 2017, 0:47

Masters Apprentices / From Mustangs To Masters + First Year Apprentices

Used drive : TSSTcorpCDDVDW SH-224DB Adapter: 1 ID: 0

Read mode : Secure
Utilize accurate stream : Yes
Defeat audio cache : Yes
Make use of C2 pointers : No

Read offset correction : 6
Overread into Lead-In and Lead-Out : No
Fill up missing offset samples with silence : Yes
Delete leading and trailing silent blocks : No
Null samples used in CRC calculations : Yes
Used interface : Native Win32 interface for Win NT & 2000

Used output format : User Defined Encoder
Selected bitrate : 1024 kBit/s
Quality : High
Add ID3 tag : No
Command line compressor : C:Program Files (x86)Exact Audio Copywin64flac.exe
Additional command line options : -8 -V -T "ARTIST=%artist%" -T "TITLE=%title%" -T "ALBUM=%albumtitle%" -T "DATE=%year%" -T "TRACKNUMBER=%tracknr%" -T "GENRE=%genre%" -T "COMMENT=%comment%" %source% -o %dest%

TOC of the extracted CD

Track | Start | Length | Start sector | End sector
––––––––––––––––––––––––––––-
1 | 0:00.00 | 0:11.64 | 0 | 888
2 | 0:11.64 | 3:02.54 | 889 | 14592
3 | 3:14.43 | 2:05.70 | 14593 | 24037
4 | 5:20.38 | 2:37.42 | 24038 | 35854
5 | 7:58.05 | 1:59.24 | 35855 | 44803
6 | 9:57.29 | 2:28.39 | 44804 | 55942
7 | 12:25.68 | 3:34.66 | 55943 | 72058
8 | 16:00.59 | 2:29.39 | 72059 | 83272
9 | 18:30.23 | 3:25.03 | 83273 | 98650
10 | 21:55.26 | 2:57.74 | 98651 | 111999
11 | 24:53.25 | 3:19.06 | 112000 | 126930
12 | 28:12.31 | 4:31.73 | 126931 | 147328
13 | 32:44.29 | 2:40.19 | 147329 | 159347
14 | 35:24.48 | 2:18.40 | 159348 | 169737
15 | 37:43.13 | 2:27.16 | 169738 | 180778
16 | 40:10.29 | 2:44.69 | 180779 | 193147
17 | 42:55.23 | 2:33.04 | 193148 | 204626
18 | 45:28.27 | 2:36.72 | 204627 | 216398
19 | 48:05.24 | 2:05.59 | 216399 | 225832
20 | 50:11.08 | 1:54.71 | 225833 | 234453
21 | 52:06.04 | 2:58.08 | 234454 | 247811
22 | 55:04.12 | 2:42.62 | 247812 | 260023

Range status and errors

Selected range

Filename F:Sket4erMasters Apprentices – From Mustangs To Masters + First Year Apprentices 2004Masters Apprentices – From Mustangs To Masters + First Year Apprentices.wav

Peak level 100.0 %
Extraction speed 3.2 X
Range quality 100.0 %
Test CRC 4C0037FB
Copy CRC 4C0037FB
Copy OK

No errors occurred

AccurateRip summary

Track 1 cannot be verified as accurate (confidence 2) [7DC82170], AccurateRip returned [A2717E11] (AR v2)
Track 2 cannot be verified as accurate (confidence 2) [A6451BB9], AccurateRip returned [D8981048] (AR v2)
Track 3 cannot be verified as accurate (confidence 2) [C224DE62], AccurateRip returned [CCEDF684] (AR v2)
Track 4 cannot be verified as accurate (confidence 2) [AE7BBA7A], AccurateRip returned [D5A68C33] (AR v2)
Track 5 cannot be verified as accurate (confidence 2) [518708E9], AccurateRip returned [51D22E17] (AR v2)
Track 6 cannot be verified as accurate (confidence 2) [A9EF3869], AccurateRip returned [C4C6A8C4] (AR v2)
Track 7 cannot be verified as accurate (confidence 2) [884D2E1E], AccurateRip returned [49014242] (AR v2)
Track 8 cannot be verified as accurate (confidence 2) [4301099F], AccurateRip returned [740D95A2] (AR v2)
Track 9 cannot be verified as accurate (confidence 2) [5D34AA7D], AccurateRip returned [7EE5A571] (AR v2)
Track 10 cannot be verified as accurate (confidence 2) [B9D99DE7], AccurateRip returned [A5379841] (AR v2)
Track 11 cannot be verified as accurate (confidence 2) [B07DD0CB], AccurateRip returned [63B2BEDD] (AR v2)
Track 12 cannot be verified as accurate (confidence 2) [D108B627], AccurateRip returned [6816B10A] (AR v2)
Track 13 cannot be verified as accurate (confidence 2) [2289D91B], AccurateRip returned [4857D583] (AR v2)
Track 14 cannot be verified as accurate (confidence 2) [79995682], AccurateRip returned [019D3B50] (AR v2)
Track 15 cannot be verified as accurate (confidence 2) [0B2A6859], AccurateRip returned [C4B6594C] (AR v2)
Track 16 cannot be verified as accurate (confidence 2) [50AB0C18], AccurateRip returned [FFEA9C6F] (AR v2)
Track 17 cannot be verified as accurate (confidence 2) [5DACE47E], AccurateRip returned [DCD323E4] (AR v2)
Track 18 cannot be verified as accurate (confidence 2) [933AB7B9], AccurateRip returned [F1E71292] (AR v2)
Track 19 cannot be verified as accurate (confidence 2) [F4879529], AccurateRip returned [9A0F91C3] (AR v2)
Track 20 cannot be verified as accurate (confidence 2) [F52F2231], AccurateRip returned [18E4B769] (AR v2)
Track 21 cannot be verified as accurate (confidence 2) [EE9A2465], AccurateRip returned [0675E00A] (AR v2)
Track 22 cannot be verified as accurate (confidence 2) [5C72D9C0], AccurateRip returned [77EB83A1] (AR v2)

No tracks could be verified as accurate
You may have a different pressing from the one(s) in the database

End of status report

–– CUETools DB Plugin V2.1.6

[CTDB TOCID: Hsop6hgRfZ4OsnEsy8kqbZC06lo-] found
Submit result: Hsop6hgRfZ4OsnEsy8kqbZC06lo- has been confirmed
Track | CTDB Status
1 | (4/4) Accurately ripped
2 | (4/4) Accurately ripped
3 | (4/4) Accurately ripped
4 | (4/4) Accurately ripped
5 | (4/4) Accurately ripped
6 | (4/4) Accurately ripped
7 | (4/4) Accurately ripped
8 | (4/4) Accurately ripped
9 | (4/4) Accurately ripped
10 | (4/4) Accurately ripped
11 | (4/4) Accurately ripped
12 | (4/4) Accurately ripped
13 | (4/4) Accurately ripped
14 | (4/4) Accurately ripped
15 | (4/4) Accurately ripped
16 | (4/4) Accurately ripped
17 | (4/4) Accurately ripped
18 | (4/4) Accurately ripped
19 | (4/4) Accurately ripped
20 | (4/4) Accurately ripped
21 | (4/4) Accurately ripped
22 | (4/4) Accurately ripped

==== Log checksum 5EC82C3913F8A391D327C2BCDEF310C2957C24FB72EA6940E14A9EAE25962951 ====

* * *

The Master's Apprentices: CD & DVD Collection (1967 - 2006)

DVD01: The Master’s Apprentices – Fully Qualified (2006)
DVD9: PAL 16:9 (720×576) VBR, Auto Letterboxed
Dolby AC3, 2 ch / LinearPCM, 2 ch
Rock / Documetary | 01:23:18 | ~ 7.46 Gb

Comprehensive DVD on Australia’s own Masters Apprentices featuring newly created documentary, film clips and Abbey Road revisited. They were wild, they were hungry, they were the bad boys of Australian rock ‘n’ roll. They were the legendary Masters Apprentices, and between 1965 and 1972 they embraced almost every trend in pop music, from raw R&B and psychedelic pop to full blown progressive rock. This is the story of how the Masters propelled themselves from the garage to national stardom. Voted Australia’s most popular band, the Masters went on to record in London’s famed Abbey Road studios alongside John Lennon before their eventual split in 1972. ‘Fully Qualified’ takes you on an amazing journey from suburban Adelaide in the early 1960’s to the world of puffy shirts, leather, long hair, drugs, groupies and manager exploitation. Theirs was a life of screaming fans, furious days and even wilder nights. It was all fame and no fortune back then, and the band eventually came to an end in London, penniless after years at the top. However, the Masters Apprentices had unwittingly blazed a trail for all those who would follow, and had lived by their anthem ‘Do what you want to do, be what you want to be’ the Masters Apprentices, Australian rock ‘n’ roll royalty.

Tracklist:

MASTERS APPRENTICES 1965 – 1972: An EMI documentary including interviews with Jeff Jarrett, Graham Lonley (Original Manager), Mick Bower (Original Song Writer/Guitarist), Jim Keays, Colin Burgess, Doug Ford, Glenn Wheatley, Brad Shepard (Hoodoo Gurus), Glenn A Baker (Rock Historian), Ian Molly Meldrum
This is the story of how the Masters propelled themselves from the garage to national stardom.

CHAPTERS:
.
01. Introduction – Mustangs to Master
02. Mark 1 – The Early Days
03. The First Gigs
04. The Road Trip to Melbourne
05. Mark 2 – The Quartet
06. Where’s Your Guitar?
07. Rebelling
08. Mark 3, London’s Calling
09. Good & Bad
10. Pretty Good Run
11. Credits
.
BONUS MATERIAL:

Abbey Road’ 2005
Producer Jeff Jarratt and singer Jim Keays study the original recordings of the ”Choice Cuts” album at the Abbey Road studios in London.

Because I Love You (Abbey Road Revisted)
Death of a King (Abbey Road Revisted)
Easy to Lie (Abbey Road Revisted)

ORIGINAL FILM CLIPS:
Elevator Driver
Buried & Dead
5.10 Man
Think About Tomorrow Today
Turn Up Your Radio
Because I Love You
Death of a King
Easy to Lie
I’m Your Satisfier
Rio de Camero
Michael
Love Is

DVDinfo
Title: DVD01. 2006 – Fully Qualified
Size: 7.08 Gb ( 7 419 226,00 KBytes ) – DVD-9
Enabled regions: 1, 2, 3, 4, 5, 6, 7, 8

VTS_01 :
Play Length: 00:00:12
Video: PAL 16:9 (720×576) VBR, Auto Letterboxed
Audio:
English (Dolby AC3, 2 ch)

VTS_02 :
Play Length: 01:23:18+{01:23:18}
Video: PAL 16:9 (720×576) VBR, Auto Letterboxed
Audio:
English, AC3, 2/0 (L,R) ch, 448 kbps, Delay 0 mSec
English, LPCM, Delay = 0 mSec

VTS_03 :
Play Length: 00:05:57+{00:05:57}
Video: PAL 16:9 (720×576) VBR, Auto Letterboxed
Audio:
English (Dolby AC3, 2 ch)
English (LinearPCM, 2 ch)

VTS_04 :
Play Length: 00:04:06+{00:04:06}
Video: PAL 16:9 (720×576) VBR, Auto Letterboxed
Audio:
English (Dolby AC3, 2 ch)
English (LinearPCM, 2 ch)

VTS_05 :
Play Length: 00:04:57+{00:04:57}
Video: PAL 16:9 (720×576) VBR, Auto Letterboxed
Audio:
English (Dolby AC3, 2 ch)
English (LinearPCM, 2 ch)

VTS_06 :
Play Length: 00:02:19
Video: PAL 16:9 (720×576) VBR, Auto Letterboxed
Audio:
English (Dolby AC3, 2 ch)
English (LinearPCM, 2 ch)

VTS_07 :
Play Length: 00:02:06
Video: PAL 16:9 (720×576) VBR, Auto Letterboxed
Audio:
English (Dolby AC3, 2 ch)
English (LinearPCM, 2 ch)

VTS_08 :
Play Length: 00:02:39
Video: PAL 16:9 (720×576) VBR, Auto Letterboxed
Audio:
English (Dolby AC3, 2 ch)
English (LinearPCM, 2 ch)

VTS_09 :
Play Length: 00:03:43
Video: PAL 16:9 (720×576) VBR, Auto Letterboxed
Audio:
English (Dolby AC3, 2 ch)
English (LinearPCM, 2 ch)

VTS_10 :
Play Length: 00:03:30
Video: PAL 16:9 (720×576) VBR, Auto Letterboxed
Audio:
English (Dolby AC3, 2 ch)
English (LinearPCM, 2 ch)

VTS_11 :
Play Length: 00:03:44
Video: PAL 16:9 (720×576) VBR, Auto Letterboxed
Audio:
English (Dolby AC3, 2 ch)
English (LinearPCM, 2 ch)

VTS_12 :
Play Length: 00:01:41
Video: PAL 16:9 (720×576) VBR, Auto Letterboxed
Audio:
English (Dolby AC3, 2 ch)
English (LinearPCM, 2 ch)

VTS_13 :
Play Length: 00:03:45
Video: PAL 16:9 (720×576) VBR, Auto Letterboxed
Audio:
English (Dolby AC3, 2 ch)
English (LinearPCM, 2 ch)

VTS_14 :
Play Length: 00:03:10
Video: PAL 16:9 (720×576) VBR, Auto Letterboxed
Audio:
English (Dolby AC3, 2 ch)
English (LinearPCM, 2 ch)

VTS_15 :
Play Length: 00:03:32
Video: PAL 16:9 (720×576) VBR, Auto Letterboxed
Audio:
English (Dolby AC3, 2 ch)
English (LinearPCM, 2 ch)

VTS_16 :
Play Length: 00:03:05
Video: PAL 16:9 (720×576) VBR, Auto Letterboxed
Audio:
English (Dolby AC3, 2 ch)
English (LinearPCM, 2 ch)

VTS_17 :
Play Length: 00:03:06
Video: PAL 16:9 (720×576) VBR, Auto Letterboxed
Audio:
English (Dolby AC3, 2 ch)
English (LinearPCM, 2 ch)

VTS_18 :
Play Length: 00:00:12
Video: PAL 16:9 (720×576) VBR, Auto Letterboxed

The Master's Apprentices: CD & DVD Collection (1967 - 2006)

The Master's Apprentices: CD & DVD Collection (1967 - 2006)

The Master's Apprentices: CD & DVD Collection (1967 - 2006)

The Master's Apprentices: CD & DVD Collection (1967 - 2006)

The Master's Apprentices: CD & DVD Collection (1967 - 2006)

* * *

All thanks go to Sket4er & tjana

The Master’s Apprentices in my Blog

Download The Master’s Apprentices: CD & DVD Collection (1967 – 2006):

The Master's Apprentices: CD & DVD Collection (1967 – 2006) Download, Warez, DDL, Free, Full Album, Torrent, Legal.

Download