The Marshall Tucker Band – Dedicated (1981)

Download
The Marshall Tucker Band - Dedicated (1981)

The Marshall Tucker Band – Dedicated (1981)
Rock | 1cd | EAC Rip | Flac + Cue + Log | covers
Shout! Factory, DK 37115 | rem: 2005 | 270Mb

After the loss of his brother/bandmate Tommy Caldwell in a serious car accident and the loss of another brother shortly thereafter, guitarist Toy Caldwell and the surviving members of the Marshall Tucker Band found it in themselves to record another record in 1981. Under the production of Tom Dowd, Dedicated is a sleek, well-polished album not unlike their previous few endeavors. The group borders the fine line between radio-friendly rock and the Southern rock sound that was so popular at the time, with songs like "Rumors Are Raging" tempering out slower, more pop-friendly songs like "Tonight’s the Night" and "Love Some." Contributions from Charlie Daniels on fiddle help to give the group a lean towards the traditional country of their earlier records, but Dowd keeps the production slick and tight enough for it not to stray too much outside rock territory. The album’s crown jewel unquestionably lies in its final track "Ride in Peace"; a touching farewell written and recorded in one take that stands with some of the best songs the group has ever recorded. ~Allmusic

Track listing
01. Rumors Are Raging (4:08)
02. Tonight’s The Night (For Making Love) (3:53)
03. Love Some (2:51)
04. Silverado (4:05)
05. Something’s Missing In My Life (3:29)
06. This Time I Believe (3:14)
07. Tell The Blues To Take Off The Night (4:47)
08. Special Someone (3:58)
09. The Time Has Come (2:41)
10. Ride In Peace (3:59)

eac log:
Exact Audio Copy V0.99 prebeta 4 from 23. January 2008

EAC extraction logfile from 22. September 2008, 19:25

Marshall Tucker Band / Dedicated

Used drive : PLEXTOR CD-R PREMIUM2 Adapter: 1 ID: 1

Read mode : Secure
Utilize accurate stream : Yes
Defeat audio cache : Yes
Make use of C2 pointers : No

Read offset correction : 30
Overread into Lead-In and Lead-Out : No
Fill up missing offset samples with silence : Yes
Delete leading and trailing silent blocks : No
Null samples used in CRC calculations : Yes
Used interface : Installed external ASPI interface
Gap handling : Appended to previous track

Used output format : User Defined Encoder
Selected bitrate : 32 kBit/s
Quality : High
Add ID3 tag : No
Command line compressor : C:ProgrammiFLACflac.exe
Additional command line options : -8 -V -T "ARTIST=%a" -T "TITLE=%t" -T "ALBUM=%g" -T "DATE=%y" -T "TRACKNUMBER=%n" -T "GENRE=%m" -T "COMMENT=EAC FLAC -8" %s

TOC of the extracted CD

Track | Start | Length | Start sector | End sector
––––––––––––––––––––––––––––-
1 | 0:00.00 | 4:08.15 | 0 | 18614
2 | 4:08.15 | 3:54.55 | 18615 | 36219
3 | 8:02.70 | 2:53.05 | 36220 | 49199
4 | 10:56.00 | 4:07.37 | 49200 | 67761
5 | 15:03.37 | 3:29.73 | 67762 | 83509
6 | 18:33.35 | 3:16.72 | 83510 | 98281
7 | 21:50.32 | 4:49.00 | 98282 | 119956
8 | 26:39.32 | 3:59.15 | 119957 | 137896
9 | 30:38.47 | 2:43.33 | 137897 | 150154
10 | 33:22.05 | 3:59.30 | 150155 | 168109

Track 1

Filename C:My Rip1 – Rumors Are Raging.wav

Pre-gap length 0:00:02.00

Peak level 98.8 %
Track quality 100.0 %
Test CRC 0A98A5EE
Copy CRC 0A98A5EE
Accurately ripped (confidence 2) [CB9CB858]
Copy OK

Track 2

Filename C:My Rip2 – Tonight’s The Night (For Making Love).wav

Peak level 98.8 %
Track quality 100.0 %
Test CRC E143A7DC
Copy CRC E143A7DC
Accurately ripped (confidence 2) [A5416CF1]
Copy OK

Track 3

Filename C:My Rip3 – Love Some.wav

Pre-gap length 0:00:00.86

Peak level 98.8 %
Track quality 100.0 %
Test CRC 06A48608
Copy CRC 06A48608
Accurately ripped (confidence 2) [3969D3F0]
Copy OK

Track 4

Filename C:My Rip4 – Silverado.wav

Pre-gap length 0:00:01.57

Peak level 98.8 %
Track quality 100.0 %
Test CRC 64104C7E
Copy CRC 64104C7E
Accurately ripped (confidence 2) [15998BAD]
Copy OK

Track 5

Filename C:My Rip5 – Something’s Missing In My Life.wav

Pre-gap length 0:00:02.26

Peak level 98.8 %
Track quality 100.0 %
Test CRC D6AF0612
Copy CRC D6AF0612
Accurately ripped (confidence 2) [5A878216]
Copy OK

Track 6

Filename C:My Rip6 – This Time I Believe.wav

Pre-gap length 0:00:00.66

Peak level 98.8 %
Track quality 100.0 %
Test CRC D4D11C36
Copy CRC D4D11C36
Accurately ripped (confidence 2) [A21FF047]
Copy OK

Track 7

Filename C:My Rip7 – Tell The Blues To Take Off The Night.wav

Pre-gap length 0:00:02.42

Peak level 98.8 %
Track quality 100.0 %
Test CRC 69EC41EA
Copy CRC 69EC41EA
Accurately ripped (confidence 2) [DE72FAC0]
Copy OK

Track 8

Filename C:My Rip8 – Special Someone.wav

Pre-gap length 0:00:01.49

Peak level 98.8 %
Track quality 100.0 %
Test CRC 77EFFE14
Copy CRC 77EFFE14
Accurately ripped (confidence 2) [763EEA9D]
Copy OK

Track 9

Filename C:My Rip9 – The Time Has Come.wav

Pre-gap length 0:00:00.86

Peak level 98.8 %
Track quality 100.0 %
Test CRC 013AFFFA
Copy CRC 013AFFFA
Accurately ripped (confidence 2) [25DACE77]
Copy OK

Track 10

Filename C:My Rip10 – Ride In Peace.wav

Pre-gap length 0:00:01.90

Peak level 98.8 %
Track quality 99.9 %
Test CRC 748211C8
Copy CRC 748211C8
Accurately ripped (confidence 2) [F28E98E5]
Copy OK

All tracks accurately ripped

No errors occurred

End of status report

cuetools report:
[CUETools log; Date: 2017. 02. 11. 21:46:42; Version: 2.1.6]
[CTDB TOCID: 1Zk2UJYWkDjTLfDVE5LkmSyzimo-] found.
Track | CTDB Status
1 | (3/3) Accurately ripped
2 | (3/3) Accurately ripped
3 | (3/3) Accurately ripped
4 | (3/3) Accurately ripped
5 | (3/3) Accurately ripped
6 | (3/3) Accurately ripped
7 | (3/3) Accurately ripped
8 | (3/3) Accurately ripped
9 | (3/3) Accurately ripped
10 | (3/3) Accurately ripped
[AccurateRip ID: 000e2fac-00714048-6408c10a] found.
Track [ CRC | V2 ] Status
01 [cb9cb858|791d7382] (0+4/4) Accurately ripped
02 [a5416cf1|487889ef] (0+4/4) Accurately ripped
03 [3969d3f0|3e75f135] (0+4/4) Accurately ripped
04 [15998bad|cd0d7dd8] (0+4/4) Accurately ripped
05 [5a878216|c6688aab] (0+4/4) Accurately ripped
06 [a21ff047|e1aa5a00] (0+4/4) Accurately ripped
07 [de72fac0|48a487dd] (0+4/4) Accurately ripped
08 [763eea9d|5ece3b4a] (0+4/4) Accurately ripped
09 [25dace77|c00f5e34] (0+4/4) Accurately ripped
10 [f28e98e5|2986a600] (0+4/4) Accurately ripped

Track Peak [ CRC32 ] [W/O NULL] [ LOG ]
– 98,8 [90D184EF] [94C70E99]
01 98,8 [0A98A5EE] [BE19BF5E] CRC32
02 98,8 [E143A7DC] [987CBF57] CRC32
03 98,8 [06A48608] [3573F996] CRC32
04 98,8 [64104C7E] [EE7753C7] CRC32
05 98,8 [D6AF0612] [C65BFD87] CRC32
06 98,8 [D4D11C36] [DC323779] CRC32
07 98,8 [69EC41EA] [A7620B8C] CRC32
08 98,8 [77EFFE14] [FEBD349C] CRC32
09 98,8 [013AFFFA] [50D3DC08] CRC32
10 98,8 [748211C8] [740E1131] CRC32

Original uploader unknown

The Marshall Tucker Band – Dedicated (1981) Download, Warez, DDL, Free, Full Album, Torrent, Legal.

Download