The Lovin' Spoonful – Hums Of The Lovin' Spoonful (1966) [Mini LP Blu-spec CD2, Japan]

Download
The Lovin' Spoonful - Hums Of The Lovin' Spoonful (1966) [Mini LP Blu-spec CD2, Japan]

The Lovin’ Spoonful – Hums Of The Lovin’ Spoonful (1966)
EAC | Flac(Image) + Cue + Log & MP3 CBR 320Kbps
2016 | Sony Music Japan, SICP-31009 | ~ 384 or 166 Mb | Scans(png) -> 195 Mb
Pop Rock / Psychedelic Rock / Folk Rock

Having released two previous albums and a soundtrack, along with a stream of singles, over the previous 12 and a half months, the Lovin’ Spoonful assembled their third regular studio LP, Hums of the Lovin’ Spoonful, for release around Thanksgiving 1966. It contained the group’s chart-topping single from the previous June, "Summer in the City," along with September’s Top Ten hit "Rain on the Roof" (curiously titled "You and Me and Rain on the Roof" on the LP). Released simultaneously with the album and included on it were the two songs from the next single, "Nashville Cats," which became the band’s seventh consecutive Top Ten entry, and "Full Measure," a B-side featuring drummer Joe Butler on lead vocals that scraped into the singles chart. Those were the money songs, although Bobby Darin discovered the leadoff track, "Lovin’ You," and quickly covered it for a Top 40 hit, and the moody "Coconut Grove," a tribute to Fred Neil, would become a permanent part of Spoonful leader John Sebastian’s repertoire in his solo career. An emphasis on the parts of the album is a way of describing it as more a loose collection of disparate tracks than a unified effort, despite Sebastian’s hand in all the compositions and his lead vocals on most of them. This was by necessity, but also by design, since Sebastian and co. went into the studio trying to sound completely different each time. They often succeeded: Except for the vocal similarity, the rock band playing "Summer in the City" and the caustic, autobiographical "4 Eyes" doesn’t sound much like the country unit picking its way through "Lovin’ You" and "Nashville Cats." Sebastian may have been an obvious New Yorker (those "yellow Sun records" were from Memphis, not Nashville), but that didn’t keep him from expressing his musical passions effectively. The 2003 Sundazed LP reissue added four demos, instrumental tracks, and alternate versions of songs from the album.

by William Ruhlmann, allmusic

The Lovin' Spoonful - Hums Of The Lovin' Spoonful (1966) [Mini LP Blu-spec CD2, Japan]

The Lovin’ Spoonful at Wiki | The Lovin’ Spoonful at Discogs | The Lovin’ Spoonful at Allmusic | The Lovin’ Spoonful HomePage

***********

The Lovin’ Spoonful – Hums Of The Lovin’ Spoonful (1966):

The Lovin' Spoonful - Hums Of The Lovin' Spoonful (1966) [Mini LP Blu-spec CD2, Japan]

Tracklist:

Mono (01-11) / Stereo (12-22):
01/12 Lovin’ You
02/13 Bes’ Friends
03/14 Voodoo In My Basement
04/15 Darlin’ Companion
05/16 Henry Thomas
06/17 Full Measure
07/18 Rain On The Roof
08/19 Coconut Grove
09/20 Nashville Cats
10/21 4 Eyes
11/22 Summer In The City

Bonus Tracks:
23 Darlin’ Companion (John Sebastian Solo Demo)
24 Rain On The Roof (Instrumental Version)
25 4 Eyes (Alternate Vocal / Extended Version)
26 Full Measure (Instrumental Version)
27 Voodoo In My Basement (Instrumental Version)
28 Darlin’ Companion (Alternate Vocal / Alternate Mix)

EAC Log
Exact Audio Copy V1.1 from 23. June 2015

EAC extraction logfile from 3. February 2017, 20:48

The Lovin’ Spoonful / Hums Of BSCD2

Used drive : PLEXTOR BD-R PX-B950SA Adapter: 1 ID: 1

Read mode : Secure
Utilize accurate stream : Yes
Defeat audio cache : Yes
Make use of C2 pointers : No

Read offset correction : 6
Overread into Lead-In and Lead-Out : No
Fill up missing offset samples with silence : Yes
Delete leading and trailing silent blocks : No
Null samples used in CRC calculations : Yes
Used interface : Native Win32 interface for Win NT & 2000

Used output format : Internal WAV Routines
Sample format : 44.100 Hz; 16 Bit; Stereo

TOC of the extracted CD

Track | Start | Length | Start sector | End sector
––––––––––––––––––––––––––––-
1 | 0:00.00 | 2:30.41 | 0 | 11290
2 | 2:30.41 | 1:55.69 | 11291 | 19984
3 | 4:26.35 | 2:31.62 | 19985 | 31371
4 | 6:58.22 | 2:23.05 | 31372 | 42101
5 | 9:21.27 | 1:44.71 | 42102 | 49972
6 | 11:06.23 | 2:43.21 | 49973 | 62218
7 | 13:49.44 | 2:14.70 | 62219 | 72338
8 | 16:04.39 | 2:44.45 | 72339 | 84683
9 | 18:49.09 | 2:38.63 | 84684 | 96596
10 | 21:27.72 | 2:53.47 | 96597 | 109618
11 | 24:21.44 | 2:43.37 | 109619 | 121880
12 | 27:05.06 | 2:29.44 | 121881 | 133099
13 | 29:34.50 | 1:54.58 | 133100 | 141707
14 | 31:29.33 | 2:29.34 | 141708 | 152916
15 | 33:58.67 | 2:22.04 | 152917 | 163570
16 | 36:20.71 | 1:43.72 | 163571 | 171367
17 | 38:04.68 | 2:42.03 | 171368 | 183520
18 | 40:46.71 | 2:13.16 | 183521 | 193511
19 | 43:00.12 | 2:43.18 | 193512 | 205754
20 | 45:43.30 | 2:35.07 | 205755 | 217386
21 | 48:18.37 | 2:53.26 | 217387 | 230387
22 | 51:11.63 | 2:44.74 | 230388 | 242761
23 | 53:56.62 | 2:23.26 | 242762 | 253512
24 | 56:20.13 | 2:17.48 | 253513 | 263835
25 | 58:37.61 | 3:40.74 | 263836 | 280409
26 | 62:18.60 | 2:43.70 | 280410 | 292704
27 | 65:02.55 | 2:40.70 | 292705 | 304774
28 | 67:43.50 | 2:27.69 | 304775 | 315868

Range status and errors

Selected range

Filename C:UsersMeijinDesktopALLexxessLovin’ Spoonful1966 Hums Of (Mini LP BSCD2 Sony Japan 2016)The Lovin’ Spoonful – Hums Of BSCD2.wav

Peak level 100.0 %
Extraction speed 5.8 X
Range quality 99.9 %
Test CRC EC9CE6F4
Copy CRC EC9CE6F4
Copy OK

No errors occurred

AccurateRip summary

Track 1 not present in database
Track 2 not present in database
Track 3 not present in database
Track 4 not present in database
Track 5 not present in database
Track 6 not present in database
Track 7 not present in database
Track 8 not present in database
Track 9 not present in database
Track 10 not present in database
Track 11 not present in database
Track 12 not present in database
Track 13 not present in database
Track 14 not present in database
Track 15 not present in database
Track 16 not present in database
Track 17 not present in database
Track 18 not present in database
Track 19 not present in database
Track 20 not present in database
Track 21 not present in database
Track 22 not present in database
Track 23 not present in database
Track 24 not present in database
Track 25 not present in database
Track 26 not present in database
Track 27 not present in database
Track 28 not present in database

None of the tracks are present in the AccurateRip database

End of status report

–– CUETools DB Plugin V2.1.6

[CTDB TOCID: 16Y9qWLFbdwmbdrYCrvsVHHh.kA-] disk not present in database
Submit result: 16Y9qWLFbdwmbdrYCrvsVHHh.kA- has been uploaded

==== Log checksum A4A9F949C9AA2584E8092B013008F2285F2EF2ADE0613D2CF55F788AF38085A1 ====

DR Log
foobar2000 1.2.9 / Dynamic Range Meter 1.1.1
log date: 2017-02-11 08:08:28

––––––––––––––––––––––––––––––––––––––––
Analyzed: The Lovin’ Spoonful / Hums Of BSCD2
––––––––––––––––––––––––––––––––––––––––

DR Peak RMS Duration Track
––––––––––––––––––––––––––––––––––––––––
DR9 -0.36 dB -11.72 dB 2:31 01-Lovin’ You / Mono
DR8 -0.31 dB -10.41 dB 1:56 02-Bes’ Friends / Mono
DR8 -0.15 dB -10.58 dB 2:32 03-Voodoo In My Basement / Mono
DR9 -0.18 dB -10.98 dB 2:23 04-Darlin’ Companion / Mono
DR7 -0.16 dB -9.26 dB 1:45 05-Henry Thomas / Mono
DR8 -0.16 dB -10.19 dB 2:43 06-Full Measure / Mono
DR10 -0.55 dB -12.45 dB 2:15 07-Rain On The Roof / Mono
DR9 -0.21 dB -13.23 dB 2:45 08-Coconut Grove / Mono
DR9 -0.11 dB -11.23 dB 2:39 09-Nashville Cats / Mono
DR6 -0.14 dB -8.42 dB 2:54 10-4 Eyes / Mono
DR7 -0.15 dB -9.82 dB 2:43 11-Summer In The City / Mono
DR9 -0.14 dB -11.27 dB 2:30 12-Lovin’ You / Stereo
DR9 -0.14 dB -11.57 dB 1:55 13-Bes’ Friends / Stereo
DR10 -0.03 dB -11.37 dB 2:29 14-Voodoo In My Basement / Stereo
DR8 -0.09 dB -10.21 dB 2:22 15-Darlin’ Companion / Stereo
DR8 0.00 dB -10.15 dB 1:44 16-Henry Thomas / Stereo
DR8 0.00 dB -10.37 dB 2:42 17-Full Measure / Stereo
DR10 -0.71 dB -13.03 dB 2:13 18-Rain On The Roof / Stereo
DR11 -0.64 dB -13.24 dB 2:43 19-Coconut Grove / Stereo
DR10 0.00 dB -11.39 dB 2:35 20-Nashville Cats / Stereo
DR8 -0.12 dB -9.73 dB 2:53 21-4 Eyes / Stereo
DR8 -0.12 dB -11.02 dB 2:45 22-Summer In The City / Stereo
DR11 -0.18 dB -13.03 dB 2:23 23-Darlin’ Companion (John Sebastian Solo Demo) / Bonus Track
DR10 -1.17 dB -13.09 dB 2:18 24-Rain On The Roof (Instrumental Version) / Bonus Track
DR9 -0.06 dB -10.44 dB 3:41 25-4 Eyes (Alternate Vocal / Extended Version) / Bonus Track
DR10 -0.45 dB -12.66 dB 2:44 26-Full Measure (Instrumental Version) / Bonus Track
DR12 -0.12 dB -14.73 dB 2:41 27-Voodoo In My Basement (Instrumental Version) / Bonus Track
DR11 -0.19 dB -11.93 dB 2:28 28-Darlin’ Companion (Alternate Vocal / Alternate Mix) / Bonus Track
––––––––––––––––––––––––––––––––––––––––

Number of tracks: 28
Official DR value: DR9

Samplerate: 44100 Hz
Channels: 2
Bits per sample: 16
Bitrate: 741 kbps
Codec: FLAC

CUETools Log
[CUETools log; Date: 11.02.2017 8:15:13; Version: 2.1.4]
[CTDB TOCID: 16Y9qWLFbdwmbdrYCrvsVHHh.kA-] found.
Track | CTDB Status
1 | (1/1) Accurately ripped
2 | (1/1) Accurately ripped
3 | (1/1) Accurately ripped
4 | (1/1) Accurately ripped
5 | (1/1) Accurately ripped
6 | (1/1) Accurately ripped
7 | (1/1) Accurately ripped
8 | (1/1) Accurately ripped
9 | (1/1) Accurately ripped
10 | (1/1) Accurately ripped
11 | (1/1) Accurately ripped
12 | (1/1) Accurately ripped
13 | (1/1) Accurately ripped
14 | (1/1) Accurately ripped
15 | (1/1) Accurately ripped
16 | (1/1) Accurately ripped
17 | (1/1) Accurately ripped
18 | (1/1) Accurately ripped
19 | (1/1) Accurately ripped
20 | (1/1) Accurately ripped
21 | (1/1) Accurately ripped
22 | (1/1) Accurately ripped
23 | (1/1) Accurately ripped
24 | (1/1) Accurately ripped
25 | (1/1) Accurately ripped
26 | (1/1) Accurately ripped
27 | (1/1) Accurately ripped
28 | (1/1) Accurately ripped
[AccurateRip ID: 0043e387-055663a8-9510731c] disk not present in database.

Track Peak [ CRC32 ] [W/O NULL] [ LOG ]
– 100,0 [EC9CE6F4] [E622B628] CRC32
01 95,9 [D4F12F93] [92AC563E]
02 96,5 [BF8247F4] [516DAD17]
03 98,3 [9FF284C1] [0416893E]
04 97,9 [198B8DB5] [B3EB1CC5]
05 98,2 [94BE2260] [2632BBD4]
06 98,2 [92D13F9E] [5E5ADE4D]
07 93,8 [04739405] [16B9B80B]
08 97,6 [6A2331C9] [2150A199]
09 98,7 [6DD15AFC] [5B438C23]
10 98,3 [09A3B7E8] [A2915C22]
11 98,2 [AEB002ED] [A961CD3C]
12 98,4 [486E38B0] [B6F9AF0E]
13 98,4 [5819522A] [01E54AE7]
14 99,6 [97713317] [FEBD3C96]
15 98,9 [1F862D1C] [6DDC9DB6]
16 100,0 [C4B10A59] [90EB00E6]
17 100,0 [74D07818] [BDAD8D44]
18 92,1 [A3C9DF77] [8AF4C98C]
19 92,8 [3C1D9018] [CC51EAC3]
20 100,0 [A3430470] [EB657608]
21 98,6 [F38D0160] [86536722]
22 98,5 [16B3D8C4] [1ED1315B]
23 97,9 [3D994568] [F6CCF441]
24 87,3 [4425F285] [C12D7BF8]
25 99,3 [847CBA21] [0C2F3682]
26 94,9 [D63D60F3] [57AB8320]
27 98,6 [A3BFC833] [5804DC42]
28 97,8 [1C394F95] [E3B39717]

The Lovin' Spoonful - Hums Of The Lovin' Spoonful (1966) [Mini LP Blu-spec CD2, Japan]

All thanks go to ALLexxess

The Lovin’ Spoonful in my Blog

Download The Lovin’ Spoonful – Hums Of The Lovin’ Spoonful (1966):

The Lovin' Spoonful – Hums Of The Lovin' Spoonful (1966) [Mini LP Blu-spec CD2, Japan] Download, Warez, DDL, Free, Full Album, Torrent, Legal.

Download