The Kinks – Schoolboys in Disgrace (1976)

Download
The Kinks - Schoolboys in Disgrace (1976)

The Kinks – Schoolboys in Disgrace (1976)
EAC | Flac(Image) + Cue + Log & MP3 CBR 320Kbps
1999 | Velvel, 013515-2 ERE | ~ 240 or 88 Mb | Scans(jpg) -> 3.76 Mb
Classic Rock

Schoolboys in Disgrace or The Kinks Present Schoolboys in Disgrace is a 1975 album by the Kinks.

According to the back cover liner notes, the story which the album presents is as follows:

Once upon a time there was a naughty little schoolboy. He and his gang were always playing tricks on the teachers and bullying other children in the school. One day he got himself into very serious trouble with a naughty schoolgirl and he was sent to the Headmaster who decided to disgrace the naughty boy and his gang in front of the whole school.
After this punishment the boy turned into a hard and bitter character. Perhaps it was not the punishment that changed him but the fact that he realised people in authority would always be there to kick him down and the Establishment would always put him in his place. He knew that he could not change the past but he vowed that in the future he would always get what he wanted. The naughty little boy grew up… into Mr Flash.

Mr Flash was the name of the villain from the Kinks’ rock opera Preservation (released as Preservation Act 1 and Preservation Act 2).

In 2015, Dave Davies spoke positively of the album in a Yahoo interview, saying, "Schoolboys in Disgrace is a great album. At the time, we were so busy doing it and getting it out and touring and playing it. Over a matter of three years it was gone and we were doing something else. But when you draw this into the present, it’s like, ‘Oh my God, what the f— is this?!? How did we do that?’ We’ve been very fortunate, Ray and I and the Kinks. We’ve had such a wealth of materials, ideas, and observations. We’ve been very good at following our intuition. That’s something you can’t really teach."

The front cover was illustrated by Mickey Finn of T. Rex. It later appeared on NME’s list of the ’50 worst covers of all time’.

In 1978 the Finnish band Kontra had a number one hit with the song "Jerry Cotton" which was a cover version of the song "Jack the Idiot Dunce."…

~ wiki

The Kinks - Schoolboys in Disgrace (1976)

The Kinks at Wiki | The Kinks at Discogs | The Kinks at Allmusic | The Kinks HomePage

***********

The Kinks – Schoolboys in Disgrace (1976):

The Kinks - Schoolboys in Disgrace (1976)

Tracklist:

1. Schooldays 3:32
2. Jack The Idiot Dunce 3:21
3. Education 7:08
4. The First Time We Fall In Love 4:03
5. I’m In Disgrace 3:22
6. Headmaster 4:03
7. The Hard Way 2:36
8. The Last Assembly 2:47
9. No More Looking Back 4:28
10. Finale 1:06

EAC Log
Exact Audio Copy V0.99 prebeta 4 from 23. January 2008

EAC extraction logfile from 29. October 2008, 0:16

The Kinks / Schoolboys in Disgrace

Used drive : Optiarc DVD RW AD-7170A Adapter: 0 ID: 0

Read mode : Secure
Utilize accurate stream : Yes
Defeat audio cache : Yes
Make use of C2 pointers : No

Read offset correction : 48
Overread into Lead-In and Lead-Out : No
Fill up missing offset samples with silence : Yes
Delete leading and trailing silent blocks : No
Null samples used in CRC calculations : Yes
Used interface : Installed external ASPI interface

Used output format : Internal WAV Routines
Sample format : 44.100 Hz; 16 Bit; Stereo

TOC of the extracted CD

Track | Start | Length | Start sector | End sector
––––––––––––––––––––––––––––-
1 | 0:00.00 | 3:31.74 | 0 | 15898
2 | 3:31.74 | 3:21.25 | 15899 | 30998
3 | 6:53.24 | 7:08.23 | 30999 | 63121
4 | 14:01.47 | 4:03.06 | 63122 | 81352
5 | 18:04.53 | 3:22.74 | 81353 | 96576
6 | 21:27.52 | 4:03.08 | 96577 | 114809
7 | 25:30.60 | 2:36.70 | 114810 | 126579
8 | 28:07.55 | 2:46.65 | 126580 | 139094
9 | 30:54.45 | 4:29.01 | 139095 | 159270
10 | 35:23.46 | 1:04.15 | 159271 | 164085

Range status and errors

Selected range

Filename C:The Kinks – 1976 – Schoolboys in Disgrace (SACD 2004)The Kinks – Schoolboys in Disgrace.wav

Peak level 99.7 %
Range quality 100.0 %
Copy CRC E9038239
Copy OK

No errors occurred

End of status report

CUETools Log
[CUETools log; Date: 13.10.2017 5:00:16; Version: 2.1.5]
[AccurateRip ID: 000f2230-00777754-85088b0a] found.
Track [ CRC | V2 ] Status
01 [216ec2ae|48c00c91] (25+29/54) Accurately ripped
02 [f0bfb394|5f2578d3] (24+30/54) Accurately ripped
03 [abdbff00|c7023171] (24+29/53) Accurately ripped
04 [aae5f3c2|93df1f6c] (24+29/53) Accurately ripped
05 [a075c37b|2a687b6b] (24+29/53) Accurately ripped
06 [934cd79f|2a05a1a1] (24+29/53) Accurately ripped
07 [894b4908|2b2ce13c] (23+30/53) Accurately ripped
08 [64de8b8b|f127a074] (24+29/53) Accurately ripped
09 [88361304|d1f5091b] (23+30/53) Accurately ripped
10 [302e1f69|ac924562] (24+29/53) Accurately ripped

Track Peak [ CRC32 ] [W/O NULL] [ LOG ]
– 99,7 [E9038239] [30387B48] CRC32
01 96,8 [CE2CE9C6] [D974852A]
02 97,4 [A2DFF036] [860122DE]
03 97,7 [CCB2E525] [F13FD572]
04 99,2 [ED85C840] [52761445]
05 98,6 [C130F757] [E5074934]
06 97,4 [2FCFAED3] [149AC688]
07 99,7 [5F3F89A8] [A8B93DD8]
08 99,1 [F7ED0D1A] [004894D7]
09 99,7 [1F81E3E4] [CF9FE0FB]
10 96,9 [EFD020BD] [850FCD01]

The Kinks - Schoolboys in Disgrace (1976)

All thanks go to the original releaser

The Kinks or The Kinks in my Blog

Download The Kinks – Schoolboys in Disgrace (1976):

The Kinks – Schoolboys in Disgrace (1976) Download, Warez, DDL, Free, Full Album, Torrent, Legal.

Download