The Jimi Hendrix Experience – Axis: Bold As Love (1967) | ViralVideoPk

Daily Dose of Free Downloads

The Jimi Hendrix Experience – Axis: Bold As Love (1967)

Download

The Jimi Hendrix Experience - Axis: Bold As Love (1967)

The Jimi Hendrix Experience – Axis: Bold As Love (1967)
EAC | Flac(Image) + Cue + Log > 253 Mb | Mp3 CBR 320Kpbs > 99 Mb
Psychedelic/Blues Rock | TT – | Label: Polydor KK | Cat. # P20P 22002 | 1989, Japan
Scans (Jpg) Included | NitroFlare, FileFactory

Jimi Hendrix’s second album followed up his groundbreaking debut effort with a solid collection of great tunes and great interactive playing between himself, Noel Redding, Mitch Mitchell, and the recording studio itself. Wisely retaining manager Chas Chandler to produce the album and Eddie Kramer as engineer, Hendrix stretched further musically than the first album, but even more so as a songwriter. He was still quite capable of coming up with spacy rockers like "You Got Me Floating," "Up from the Skies," and "Little Miss Lover," radio-ready to follow on the commercial heels of "Foxey Lady" and "Purple Haze." But the beautiful, wistful ballads "Little Wing," "Castles Made of Sand," "One Rainy Wish," and the title track set closer show remarkable growth and depth as a tunesmith, harnessing Curtis Mayfield soul guitar to Dylanesque lyrical imagery and Fuzz Face hyperactivity to produce yet another side to his grand psychedelic musical vision. These are tempered with Jimi’s most avant-garde tracks yet, "EXP" and the proto-fusion jazz blowout of "If 6 Was 9."

by Cub Koda, allmusic.com
The Jimi Hendrix Experience - Axis: Bold As Love (1967)

Jimi Hendrix at wiki | Jimi Hendrix at discogs | Jimi Hendrix official website

*********
Jimi Hendrix – Axis: Bold As Love at discogs

The Jimi Hendrix Experience - Axis: Bold As Love (1967)

Tracklist:

01. EXP [01:54]
02. Up From The Skies [02:57]
03. Spanish Castle Magic [03:04]
04. Wait Until Tomorrow [03:00]
05. Ain’t No Telling [01:48]
06. Little Wing [02:26]
07. If 6 Was 9 [05:34]
08. You Got Me Floatin’ [02:41]
09. Castles Made Of Sand [02:46]
10. She’s So Fine [02:40]
11. One Rainy Wish [03:40]
12. Little Miss Lover [02:21]
13. Bold As Love [04:09]

EAC
Exact Audio Copy V0.99 prebeta 5 from 4. May 2009

EAC extraction logfile from 5. May 2013, 21:25

JIMI HENDRIX / Axis- Bold As Love

Used drive : ASUS DRW-24B3ST Adapter: 4 ID: 0

Read mode : Secure
Utilize accurate stream : Yes
Defeat audio cache : Yes
Make use of C2 pointers : No

Read offset correction : 6
Overread into Lead-In and Lead-Out : No
Fill up missing offset samples with silence : Yes
Delete leading and trailing silent blocks : No
Null samples used in CRC calculations : Yes
Used interface : Native Win32 interface for Win NT & 2000

Used output format : User Defined Encoder
Selected bitrate : 1024 kBit/s
Quality : High
Add ID3 tag : No
Command line compressor : C:Program Files (x86)EACWVwavpack.exe
Additional command line options : -h -hh -m %s %d

TOC of the extracted CD

Track | Start | Length | Start sector | End sector
––––––––––––––––––––––––––––-
1 | 0:00.37 | 1:54.43 | 37 | 8629
2 | 1:55.05 | 2:57.32 | 8630 | 21936
3 | 4:52.37 | 3:04.13 | 21937 | 35749
4 | 7:56.50 | 3:00.62 | 35750 | 49311
5 | 10:57.37 | 1:48.00 | 49312 | 57411
6 | 12:45.37 | 2:26.45 | 57412 | 68406
7 | 15:12.07 | 5:34.03 | 68407 | 93459
8 | 20:46.10 | 2:41.25 | 93460 | 105559
9 | 23:27.35 | 2:46.57 | 105560 | 118066
10 | 26:14.17 | 2:40.20 | 118067 | 130086
11 | 28:54.37 | 3:40.15 | 130087 | 146601
12 | 32:34.52 | 2:21.48 | 146602 | 157224
13 | 34:56.25 | 4:09.40 | 157225 | 175939

Range status and errors

Selected range

Filename S:JIMI HENDRIX1967- Axis- Bold As Love (JP 1989 Polydor KK • P20P 22002)JIMI HENDRIX – Axis- Bold As Love.wav

Peak level 93.5 %
Range quality 100.0 %
Test CRC 3ADC0988
Copy CRC 3ADC0988
Copy OK

No errors occurred

AccurateRip summary

Track 1 accurately ripped (confidence 3) [130BD7D6]
Track 2 accurately ripped (confidence 3) [5F20F47E]
Track 3 accurately ripped (confidence 3) [4C7BDA3D]
Track 4 accurately ripped (confidence 3) [67C0A80E]
Track 5 accurately ripped (confidence 3) [B6277FD2]
Track 6 accurately ripped (confidence 3) [26D40658]
Track 7 accurately ripped (confidence 3) [4A60FA2F]
Track 8 accurately ripped (confidence 3) [EC63DB13]
Track 9 accurately ripped (confidence 3) [15A45DE2]
Track 10 accurately ripped (confidence 3) [FF042799]
Track 11 accurately ripped (confidence 3) [1945D588]
Track 12 accurately ripped (confidence 3) [295DE9FC]
Track 13 accurately ripped (confidence 3) [AED3B004]

All tracks accurately ripped

End of status report

Dynamic Range
foobar2000 1.2.9 / Dynamic Range Meter 1.1.1
log date: 2016-12-21 18:56:55

––––––––––––––––––––––––––––––––––––––––
Analyzed: JIMI HENDRIX / Axis- Bold As Love
––––––––––––––––––––––––––––––––––––––––

DR Peak RMS Duration Track
––––––––––––––––––––––––––––––––––––––––
DR10 -2.82 dB -18.29 dB 1:55 01-EXP
DR12 -2.34 dB -17.56 dB 2:57 02-Up From The Skies
DR10 -2.26 dB -13.74 dB 3:04 03-Spanish Castle Magic
DR11 -1.92 dB -15.32 dB 3:01 04-Wait Until Tomorrow
DR11 -1.80 dB -14.48 dB 1:48 05-Ain’t No Telling
DR9 -1.00 dB -14.69 dB 2:27 06-Little Wing
DR10 -1.77 dB -15.24 dB 5:34 07-If 6 Was 9
DR10 -1.77 dB -14.44 dB 2:41 08-You Got Me Floatin’
DR11 -3.23 dB -19.33 dB 2:47 09-Castles Made Of Sand
DR10 -1.49 dB -13.91 dB 2:40 10-She’s So Fine
DR12 -2.81 dB -17.46 dB 3:40 11-One Rainy Wish
DR11 -2.23 dB -15.47 dB 2:22 12-Little Miss Lover
DR10 -0.58 dB -14.32 dB 4:10 13-Bold As Love
––––––––––––––––––––––––––––––––––––––––

Number of tracks: 13
Official DR value: DR11

Samplerate: 44100 Hz
Channels: 2
Bits per sample: 16
Bitrate: 855 kbps
Codec: FLAC

CUETools
[CUETools log; Date: 21.12.2016 18:56:45; Version: 2.1.4]
Pregap length 00:00:37.
[CTDB TOCID: Q24chtZtkVNP0H_qUpHUx4H7iys-] found.
Track | CTDB Status
1 | (7/7) Accurately ripped
2 | (7/7) Accurately ripped
3 | (7/7) Accurately ripped
4 | (7/7) Accurately ripped
5 | (7/7) Accurately ripped
6 | (7/7) Accurately ripped
7 | (7/7) Accurately ripped
8 | (7/7) Accurately ripped
9 | (7/7) Accurately ripped
10 | (7/7) Accurately ripped
11 | (7/7) Accurately ripped
12 | (7/7) Accurately ripped
13 | (7/7) Accurately ripped
[AccurateRip ID: 0011d42a-00b5259d-cc09290d] found.
Track [ CRC | V2 ] Status
01 [130bd7d6|38bdfcd1] (4+0/6) Accurately ripped
02 [5f20f47e|75b356bb] (4+0/6) Accurately ripped
03 [4c7bda3d|ea954568] (4+0/6) Accurately ripped
04 [67c0a80e|c818eb4b] (4+0/6) Accurately ripped
05 [b6277fd2|ca89e1f0] (4+0/6) Accurately ripped
06 [26d40658|076ed5ae] (4+0/6) Accurately ripped
07 [4a60fa2f|f1e9a88b] (4+0/6) Accurately ripped
08 [ec63db13|d9ad347d] (4+0/6) Accurately ripped
09 [15a45de2|ccf97374] (4+0/6) Accurately ripped
10 [ff042799|e81d6005] (4+0/6) Accurately ripped
11 [1945d588|5a4dd3a5] (4+0/6) Accurately ripped
12 [295de9fc|8ede5545] (4+0/6) Accurately ripped
13 [aed3b004|dfeadb06] (4+0/6) Accurately ripped
Offsetted by 2361:
01 [84b4e25c] (0/6) No match (V2 was not tested)
02 [848d04fa] (0/6) No match (V2 was not tested)
03 [b8dd3d09] (0/6) No match (V2 was not tested)
04 [80ccea75] (0/6) No match (V2 was not tested)
05 [61f9ca5d] (0/6) No match (V2 was not tested)
06 [72b8a6d8] (0/6) No match (V2 was not tested)
07 [d52f47cd] (0/6) No match (V2 was not tested)
08 [01dc603e] (0/6) No match (V2 was not tested)
09 [5f9410a4] (0/6) No match (V2 was not tested)
10 [ef2b7882] (0/6) No match (V2 was not tested)
11 [10fc78b8] (0/6) No match (V2 was not tested)
12 [23616349] (0/6) No match (V2 was not tested)
13 [fc9c99ed] (0/6) No match (V2 was not tested)

Track Peak [ CRC32 ] [W/O NULL] [ LOG ]
– 93,5 [3ADC0988] [03E290B5] CRC32
01 72,3 [74B12FC1] [19F146AE]
02 76,4 [BFE771EE] [F993F63F]
03 77,1 [B35E0515] [6FBDD3C3]
04 80,1 [198B6951] [D868FD87]
05 81,3 [A32764D6] [0A99B3A0]
06 89,1 [BF644DBF] [1AC8EF0E]
07 81,5 [52CB6CB2] [B2E326FA]
08 81,6 [DDCD36D8] [BBD33566]
09 68,9 [E59FA3A6] [949E72FA]
10 84,2 [7C7C8284] [6C2D2496]
11 72,3 [D986C3F4] [8276CCAB]
12 77,3 [22683D73] [FAB85102]
13 93,5 [CCC5FD14] [04914A20]

The Jimi Hendrix Experience - Axis: Bold As Love (1967)

All thanks go to original releaser …

The Jimi Hendrix Experience – Axis: Bold As Love (1967) Download, Warez, DDL, Free, Full Album, Torrent, Legal.

Download


  • Recent Posts

  • Recent Tags