The Jimi Hendrix Experience – Are You Experienced (1967) | ViralVideoPk

Daily Dose of Free Downloads

The Jimi Hendrix Experience – Are You Experienced (1967)

Download

The Jimi Hendrix Experience - Are You Experienced (1967)

The Jimi Hendrix Experience – Are You Experienced (1967)
EAC | Flac(Image) + Cue + Log > 251 Mb | Mp3 CBR 320Kpbs > 102 Mb
Hard/Psychedelic/Blues Rock | TT – 40:00 | Label: Polydor KK | Cat. # P20P 22001 | 1989, Japan
Scans (Jpg) Included | NitroFlare, FileFactory

Are You Experienced is the debut studio album by English-American rock band the Jimi Hendrix Experience. Released in 1967, the LP was an immediate critical and commercial success, and it is widely regarded as one of the greatest debuts in the history of rock music. The album features Jimi Hendrix’s innovative approach to songwriting and electric guitar playing which soon established a new direction in psychedelic and hard rock music.

By mid-1966, Hendrix was struggling to earn a living playing the R&B circuit as a backing guitarist. After being referred to Chas Chandler, who was leaving the Animals and interested in managing and producing artists, Hendrix was signed to a management and production contract with Chandler and ex-Animals manager Michael Jeffery. Chandler brought Hendrix to London and began recruiting members for a band designed to showcase the guitarist’s talents, the Jimi Hendrix Experience. In late October, after having been rejected by Decca Records, the Experience signed with Track, a new label formed by the Who’s managers Kit Lambert and Chris Stamp.

Are You Experienced and its preceding singles were recorded over a five-month period from late October 1966 through early April 1967. The album was completed in sixteen recording sessions at three London locations, including De Lane Lea Studios, CBS, and Olympic. Released in the UK on May 12, 1967, Are You Experienced spent 33 weeks on the charts, peaking at number two. The album was issued in the US on August 23 by Reprise Records, where it reached number five on the Billboard 200, remaining on the chart for 106 weeks, 27 of those in the Top 40. The album also spent 70 weeks on the US Billboard R&B chart, where it peaked at #10. The US version contained some of Hendrix’s best known songs, including the Experience’s first three singles, which, though omitted from the British edition of the LP, were top ten hits in the UK: "Purple Haze", "Hey Joe", and "The Wind Cries Mary".

In 2005, Rolling Stone ranked Are You Experienced fifteenth on its list of the 500 Greatest Albums of All Time. They placed four songs from the album on their list of the 500 Greatest Songs of All Time: "Purple Haze" (17), "Foxy Lady" (153), "Hey Joe" (201), and "The Wind Cries Mary" (379). That same year, the record was one of 50 recordings chosen by the Library of Congress in recognition of its cultural significance to be added to the National Recording Registry. Writer and archivist Rueben Jackson of the Smithsonian Institution wrote: "it’s still a landmark recording because it is of the rock, R&B, blues … musical tradition. It altered the syntax of the music … in a way I compare to James Joyce’s Ulysses."

wikipedia.org
The Jimi Hendrix Experience - Are You Experienced (1967)

Jimi Hendrix at wiki | Jimi Hendrix at discogs | Jimi Hendrix official website

*********
The Jimi Hendrix Experience – Are You Experienced at discogs

The Jimi Hendrix Experience - Are You Experienced (1967)

Tracklist:

01. Foxy Lady [03:17]
02. Manic Depression [03:42]
03. Red House [03:44]
04. Can You See Me [02:33]
05. Love Or Confusion [03:13]
06. I Don’t Live Today [03:54]
07. May This Be Love [03:11]
08. Fire [02:45]
09. Third Stone From The Sun [06:41]
10. Remember [02:46]
11. Are You Experienced [04:11]

EAC
Exact Audio Copy V0.99 prebeta 5 from 4. May 2009

EAC extraction logfile from 5. May 2013, 21:25

JIMI HENDRIX / Are You Experienced

Used drive : ASUS DRW-24B3ST Adapter: 5 ID: 0

Read mode : Secure
Utilize accurate stream : Yes
Defeat audio cache : Yes
Make use of C2 pointers : No

Read offset correction : 6
Overread into Lead-In and Lead-Out : No
Fill up missing offset samples with silence : Yes
Delete leading and trailing silent blocks : No
Null samples used in CRC calculations : Yes
Used interface : Native Win32 interface for Win NT & 2000

Used output format : User Defined Encoder
Selected bitrate : 1024 kBit/s
Quality : High
Add ID3 tag : No
Command line compressor : C:Program Files (x86)EACWVwavpack.exe
Additional command line options : -h -hh -m %s %d

TOC of the extracted CD

Track | Start | Length | Start sector | End sector
––––––––––––––––––––––––––––-
1 | 0:00.37 | 3:17.43 | 37 | 14854
2 | 3:18.05 | 3:42.07 | 14855 | 31511
3 | 7:00.12 | 3:44.50 | 31512 | 48361
4 | 10:44.62 | 2:33.48 | 48362 | 59884
5 | 13:18.35 | 3:13.00 | 59885 | 74359
6 | 16:31.35 | 3:54.10 | 74360 | 91919
7 | 20:25.45 | 3:11.02 | 91920 | 106246
8 | 23:36.47 | 2:45.40 | 106247 | 118661
9 | 26:22.12 | 6:41.25 | 118662 | 148761
10 | 33:03.37 | 2:46.25 | 148762 | 161236
11 | 35:49.62 | 4:11.15 | 161237 | 180076

Range status and errors

Selected range

Filename S:JIMI HENDRIX1967- Are You Experienced (JP 1989 Polydor KK • P20P 22001)JIMI HENDRIX – Are You Experienced.wav

Peak level 89.1 %
Range quality 100.0 %
Test CRC 3E533EB9
Copy CRC 3E533EB9
Copy OK

No errors occurred

AccurateRip summary

Track 1 accurately ripped (confidence 2) [B4C96B1F]
Track 2 accurately ripped (confidence 2) [9FD03C57]
Track 3 accurately ripped (confidence 2) [491289E1]
Track 4 accurately ripped (confidence 2) [8ABC0ACD]
Track 5 accurately ripped (confidence 2) [D6E617C6]
Track 6 accurately ripped (confidence 2) [698A2F8E]
Track 7 accurately ripped (confidence 2) [B140BB2B]
Track 8 accurately ripped (confidence 2) [3A054520]
Track 9 accurately ripped (confidence 2) [E3606FDC]
Track 10 accurately ripped (confidence 2) [D2E11397]
Track 11 accurately ripped (confidence 2) [DB3A885F]

All tracks accurately ripped

End of status report

Dynamic Range
foobar2000 1.2.9 / Dynamic Range Meter 1.1.1
log date: 2016-12-20 20:15:45

––––––––––––––––––––––––––––––––––––––––
Analyzed: JIMI HENDRIX / Are You Experienced
––––––––––––––––––––––––––––––––––––––––

DR Peak RMS Duration Track
––––––––––––––––––––––––––––––––––––––––
DR10 -1.02 dB -12.97 dB 3:18 01-Foxy Lady
DR10 -1.00 dB -12.22 dB 3:42 02-Manic Depression
DR9 -1.17 dB -10.99 dB 3:45 03-Red House
DR10 -1.15 dB -13.05 dB 2:34 04-Can You See Me
DR10 -1.49 dB -12.84 dB 3:13 05-Love Or Confusion
DR11 -1.21 dB -14.57 dB 3:54 06-I Don’t Live Today
DR11 -1.20 dB -15.56 dB 3:11 07-May This Be Love
DR10 -1.15 dB -13.15 dB 2:46 08-Fire
DR9 -1.15 dB -12.11 dB 6:41 09-Third Stone From The Sun
DR11 -1.25 dB -13.53 dB 2:46 10-Remember
DR10 -1.00 dB -13.54 dB 4:11 11-Are You Experienced
––––––––––––––––––––––––––––––––––––––––

Number of tracks: 11
Official DR value: DR10

Samplerate: 44100 Hz
Channels: 2
Bits per sample: 16
Bitrate: 831 kbps
Codec: FLAC

CUETools
[CUETools log; Date: 20.12.2016 20:15:35; Version: 2.1.4]
Pregap length 00:00:37.
[CTDB TOCID: yWfulAp_ekyrRCeui5GwK.jY5eA-] found.
Track | CTDB Status
1 | (7/7) Accurately ripped
2 | (7/7) Accurately ripped
3 | (7/7) Accurately ripped
4 | (7/7) Accurately ripped
5 | (7/7) Accurately ripped
6 | (7/7) Accurately ripped
7 | (7/7) Accurately ripped
8 | (7/7) Accurately ripped
9 | (7/7) Accurately ripped
10 | (7/7) Accurately ripped
11 | (7/7) Accurately ripped
[AccurateRip ID: 000fce8c-008a0b39-8509610b] found.
Track [ CRC | V2 ] Status
01 [b4c96b1f|793eaa72] (2+3/5) Accurately ripped
02 [9fd03c57|b4837a05] (2+3/5) Accurately ripped
03 [491289e1|cb28b39f] (2+3/5) Accurately ripped
04 [8abc0acd|c44426d0] (2+3/5) Accurately ripped
05 [d6e617c6|22721819] (2+3/5) Accurately ripped
06 [698a2f8e|00b8ea50] (2+3/5) Accurately ripped
07 [b140bb2b|df0ed7d8] (2+3/5) Accurately ripped
08 [3a054520|6b2e1d00] (2+3/5) Accurately ripped
09 [e3606fdc|77a487ec] (2+3/5) Accurately ripped
10 [d2e11397|393b2798] (2+3/5) Accurately ripped
11 [db3a885f|df31f721] (2+3/5) Accurately ripped

Track Peak [ CRC32 ] [W/O NULL] [ LOG ]
– 89,1 [3E533EB9] [24458110] CRC32
01 88,9 [FB54C1B0] [D6CB5897]
02 89,1 [944C3835] [DFF8D5CE]
03 87,3 [DF105025] [BB7AA1C7]
04 87,6 [51075AC9] [A96775C8]
05 84,2 [0D49EBCF] [D25E1C77]
06 86,9 [09BE8B41] [9C491F82]
07 87,0 [2FAF7409] [0DFA2C53]
08 87,6 [50046DFD] [033E3B0F]
09 87,6 [AC1B085F] [44D4022B]
10 86,6 [F73490E1] [8A0D7ACD]
11 89,1 [E3EC4214] [3A690AE0]

The Jimi Hendrix Experience - Are You Experienced (1967)

All thanks go to original releaser …

The Jimi Hendrix Experience – Are You Experienced (1967) Download, Warez, DDL, Free, Full Album, Torrent, Legal.

Download


  • Recent Posts

  • Recent Tags