The Jimi Hendrix Experience ‎- Electric Ladyland (1968) | ViralVideoPk

Daily Dose of Free Downloads

The Jimi Hendrix Experience ‎- Electric Ladyland (1968)

Download

The Jimi Hendrix Experience ‎- Electric Ladyland (1968)

The Jimi Hendrix Experience ‎- Electric Ladyland (1968)
EAC | Flac(Image) + Cue + Log > 487 Mb | Mp3 CBR 320Kpbs > 187 Mb
Psychedelic/Blues Rock | 2CD | Label: Polydor KK | Cat. # P36P 22004~5 | 1989, Japan
Scans (Jpg) Included | NitroFlare, FileFactory

Jimi Hendrix’s third and final album with the original Experience found him taking his funk and psychedelic sounds to the absolute limit. The result was not only one of the best rock albums of the era, but also Hendrix’s original musical vision at its absolute apex. When revisionist rock critics refer to him as the maker of a generation’s mightiest dope music, this is the album they’re referring to. But Electric Ladyland is so much more than just background music for chemical intake. Kudos to engineer Eddie Kramer (who supervised the remastering of the original two-track stereo masters for this 1997 reissue on MCA) for taking Hendrix’s visions of a soundscape behind his music and giving it all context, experimenting with odd mic techniques, echo, backward tape, flanging, and chorusing, all new techniques at the time, at least the way they’re used here. What Hendrix sonically achieved on this record expanded the concept of what could be gotten out of a modern recording studio in much the same manner as Phil Spector had done a decade before with his Wall of Sound. As an album this influential (and as far as influencing a generation of players and beyond, this was his ultimate statement for many), the highlights speak for themselves: "Crosstown Traffic," his reinterpretation of Bob Dylan’s "All Along the Watchtower," "Burning of the Midnight Lamp," the spacy "1983…(A Merman I Should Turn to Be)," and "Voodoo Chile (Slight Return)," a landmark in Hendrix’s playing. With this double set (now on one compact disc), Hendrix once again pushed the concept album to new horizons.

by Cub Koda, allmusic.com
The Jimi Hendrix Experience ‎- Electric Ladyland (1968)

Jimi Hendrix at wiki | Jimi Hendrix at discogs | Jimi Hendrix official website

*********
The Jimi Hendrix Experience ‎- Electric Ladyland at discogs

The Jimi Hendrix Experience ‎- Electric Ladyland (1968)

Tracklist CD1:

01. …And The Gods Made Love [01:23]
02. Have You Ever Been (To Electric Ladyland) [02:10]
03. Crosstown Traffic [02:26]
04. Voodoo Chile [15:00]
05. Still Raining, Still Dreaming [04:28]
06. House Burning Down [04:33]
07. All Along The Watchtower [04:03]
08. Voodoo Child (Slight Return) [05:14]

EAC
Exact Audio Copy V0.99 prebeta 5 from 4. May 2009

EAC extraction logfile from 5. May 2013, 21:51

JIMI HENDRIX / Electric Ladyland CD1

Used drive : ASUS DRW-24B3ST Adapter: 4 ID: 0

Read mode : Secure
Utilize accurate stream : Yes
Defeat audio cache : Yes
Make use of C2 pointers : No

Read offset correction : 6
Overread into Lead-In and Lead-Out : No
Fill up missing offset samples with silence : Yes
Delete leading and trailing silent blocks : No
Null samples used in CRC calculations : Yes
Used interface : Native Win32 interface for Win NT & 2000

Used output format : User Defined Encoder
Selected bitrate : 1024 kBit/s
Quality : High
Add ID3 tag : No
Command line compressor : C:Program Files (x86)EACWVwavpack.exe
Additional command line options : -h -hh -m %s %d

TOC of the extracted CD

Track | Start | Length | Start sector | End sector
––––––––––––––––––––––––––––-
1 | 0:00.37 | 1:23.00 | 37 | 6261
2 | 1:23.37 | 2:10.08 | 6262 | 16019
3 | 3:33.45 | 2:26.45 | 16020 | 27014
4 | 6:00.15 | 15:00.45 | 27015 | 94559
5 | 21:00.60 | 4:28.30 | 94560 | 114689
6 | 25:29.15 | 4:33.10 | 114690 | 135174
7 | 30:02.25 | 4:03.00 | 135175 | 153399
8 | 34:05.25 | 5:14.32 | 153400 | 176981

Range status and errors

Selected range

Filename S:JIMI HENDRIX1968- Electric Ladyland (2CD JP 1989 Polydor KK • P36P 22004~5)JIMI HENDRIX – Electric Ladyland CD1.wav

Peak level 100.0 %
Range quality 100.0 %
Test CRC 90A42515
Copy CRC 90A42515
Copy OK

No errors occurred

AccurateRip summary

Track 1 accurately ripped (confidence 1) [15BF351F]
Track 2 accurately ripped (confidence 1) [2D92EC5D]
Track 3 accurately ripped (confidence 1) [16360FE9]
Track 4 accurately ripped (confidence 1) [C82F4098]
Track 5 accurately ripped (confidence 1) [EDCB5EAF]
Track 6 accurately ripped (confidence 1) [9BF074D9]
Track 7 accurately ripped (confidence 1) [C3DED9E3]
Track 8 accurately ripped (confidence 1) [A58F4F69]

All tracks accurately ripped

End of status report

Dynamic Range
foobar2000 1.2.9 / Dynamic Range Meter 1.1.1
log date: 2016-12-22 02:11:04

––––––––––––––––––––––––––––––––––––––––
Analyzed: JIMI HENDRIX / Electric Ladyland CD1
––––––––––––––––––––––––––––––––––––––––

DR Peak RMS Duration Track
––––––––––––––––––––––––––––––––––––––––
DR9 -0.23 dB -14.61 dB 1:23 01-…And The Gods Made Love
DR10 -0.29 dB -12.37 dB 2:10 02-Have You Ever Been (To Electric Ladyland)
DR10 -0.11 dB -11.93 dB 2:27 03-Crosstown Traffic
DR10 0.00 dB -12.54 dB 15:01 04-Voodoo Chile
DR11 -0.37 dB -14.21 dB 4:28 05-Still Raining, Still Dreaming
DR11 -0.13 dB -12.44 dB 4:33 06-House Burning Down
DR10 0.00 dB -12.01 dB 4:03 07-All Along The Watchtower
DR10 -0.18 dB -12.36 dB 5:14 08-Voodoo Child (Slight Return)
––––––––––––––––––––––––––––––––––––––––

Number of tracks: 8
Official DR value: DR10

Samplerate: 44100 Hz
Channels: 2
Bits per sample: 16
Bitrate: 877 kbps
Codec: FLAC
================================================================================

CUETools
[CUETools log; Date: 22.12.2016 2:10:57; Version: 2.1.4]
Pregap length 00:00:37.
[CTDB TOCID: eHo3epw.Uc0EpQIt.vhgf4SsQfM-] found.
Track | CTDB Status
1 | (9/9) Accurately ripped
2 | (9/9) Accurately ripped
3 | (9/9) Accurately ripped
4 | (9/9) Accurately ripped
5 | (9/9) Accurately ripped
6 | (8/9) Accurately ripped
7 | (8/9) Accurately ripped
8 | (9/9) Accurately ripped
[AccurateRip ID: 000b0cad-004dc1cc-51093708] found.
Track [ CRC | V2 ] Status
01 [15bf351f|1afe153f] (0+0/3) No match
02 [2d92ec5d|49ef1b18] (0+0/3) No match
03 [16360fe9|ddb40fa4] (0+0/3) No match
04 [c82f4098|c412a10d] (0+0/3) No match
05 [edcb5eaf|4463baf1] (0+0/3) No match
06 [9bf074d9|4525936f] (0+0/3) No match
07 [c3ded9e3|7a2fe2f0] (0+0/3) No match
08 [a58f4f69|29c64099] (0+0/3) No match
Offsetted by 2425:
01 [ac86ed27] (0/3) No match (V2 was not tested)
02 [5577aa87] (0/3) No match (V2 was not tested)
03 [46e00dfe] (0/3) No match (V2 was not tested)
04 [47aafd44] (0/3) No match (V2 was not tested)
05 [ff1d299d] (0/3) No match (V2 was not tested)
06 [a214e9c4] (0/3) No match (V2 was not tested)
07 [216c0b47] (0/3) No match (V2 was not tested)
08 [07ef6185] (0/3) No match (V2 was not tested)

Track Peak [ CRC32 ] [W/O NULL] [ LOG ]
– 100,0 [90A42515] [901982AF] CRC32
01 97,3 [A30918F7] [540446B7]
02 96,7 [A430DB9C] [837FE78B]
03 98,7 [B0CBE714] [ABED8833]
04 100,0 [A54D06E5] [3CA6B6BD]
05 95,7 [63956BEA] [4274FF18]
06 98,4 [839E8EE9] [33C9C887]
07 100,0 [C9296541] [7009530C]
08 97,9 [79FF31A4] [5F41C76D]

The Jimi Hendrix Experience ‎- Electric Ladyland (1968)

Tracklist CD2:

01. Little Miss Strange [02:54]
02. Long Hot Summer Night [03:29]
03. Come On (Part 1) [04:12]
04. Gipsy Eyes [03:47]
05. The Burning Of The Midnight Lamp [03:42]
06. Rainy Day, Dream Away [03:41]
07. 1983… (A Merman I Should Turn To Be) [04:48]
08. Moon, Turn The Tides… Gently, Gently Away [09:54]

EAC
Exact Audio Copy V0.99 prebeta 5 from 4. May 2009

EAC extraction logfile from 5. May 2013, 21:51

JIMI HENDRIX / Electric Ladyland CD2

Used drive : ASUS DRW-24B3ST Adapter: 5 ID: 0

Read mode : Secure
Utilize accurate stream : Yes
Defeat audio cache : Yes
Make use of C2 pointers : No

Read offset correction : 6
Overread into Lead-In and Lead-Out : No
Fill up missing offset samples with silence : Yes
Delete leading and trailing silent blocks : No
Null samples used in CRC calculations : Yes
Used interface : Native Win32 interface for Win NT & 2000

Used output format : User Defined Encoder
Selected bitrate : 1024 kBit/s
Quality : High
Add ID3 tag : No
Command line compressor : C:Program Files (x86)EACWVwavpack.exe
Additional command line options : -h -hh -m %s %d

TOC of the extracted CD

Track | Start | Length | Start sector | End sector
––––––––––––––––––––––––––––-
1 | 0:00.37 | 2:54.08 | 37 | 13094
2 | 2:54.45 | 3:29.67 | 13095 | 28836
3 | 6:24.37 | 4:12.28 | 28837 | 47764
4 | 10:36.65 | 3:47.27 | 47765 | 64816
5 | 14:24.17 | 3:42.38 | 64817 | 81504
6 | 18:06.55 | 3:41.32 | 81505 | 98111
7 | 21:48.12 | 4:48.03 | 98112 | 119714
8 | 26:36.15 | 9:54.20 | 119715 | 164284

Range status and errors

Selected range

Filename S:JIMI HENDRIX1968- Electric Ladyland (2CD JP 1989 Polydor KK • P36P 22004~5)JIMI HENDRIX – Electric Ladyland CD2.wav

Peak level 100.0 %
Range quality 100.0 %
Test CRC C225AF57
Copy CRC C225AF57
Copy OK

No errors occurred

AccurateRip summary

Track 1 accurately ripped (confidence 1) [955CEBFA]
Track 2 accurately ripped (confidence 1) [73B32992]
Track 3 accurately ripped (confidence 1) [5E1A9B1E]
Track 4 accurately ripped (confidence 1) [A30F843B]
Track 5 accurately ripped (confidence 1) [1DF8EE9D]
Track 6 accurately ripped (confidence 1) [6191E176]
Track 7 accurately ripped (confidence 1) [F1AA412E]
Track 8 accurately ripped (confidence 1) [C7AD784E]

All tracks accurately ripped

End of status report

Dynamic Range
foobar2000 1.2.9 / Dynamic Range Meter 1.1.1
log date: 2016-12-22 02:11:23

––––––––––––––––––––––––––––––––––––––––
Analyzed: JIMI HENDRIX / Electric Ladyland CD2
––––––––––––––––––––––––––––––––––––––––

DR Peak RMS Duration Track
––––––––––––––––––––––––––––––––––––––––
DR10 -0.52 dB -13.12 dB 2:54 01-Little Miss Strange
DR10 -0.27 dB -13.01 dB 3:30 02-Long Hot Summer Night
DR10 -0.16 dB -11.82 dB 4:12 03-Come On (Part 1)
DR9 -0.15 dB -11.16 dB 3:47 04-Gipsy Eyes
DR9 -2.02 dB -13.10 dB 3:43 05-The Burning Of The Midnight Lamp
DR12 -0.18 dB -14.27 dB 3:41 06-Rainy Day, Dream Away
DR11 -0.18 dB -13.63 dB 4:48 07-1983… (A Merman I Should Turn To Be)
DR12 0.00 dB -16.31 dB 9:54 08-Moon, Turn The Tides… Gently, Gently Away
––––––––––––––––––––––––––––––––––––––––

Number of tracks: 8
Official DR value: DR10

Samplerate: 44100 Hz
Channels: 2
Bits per sample: 16
Bitrate: 833 kbps
Codec: FLAC
================================================================================

CUETools
[CUETools log; Date: 22.12.2016 2:11:10; Version: 2.1.4]
Pregap length 00:00:37.
[CTDB TOCID: u.C2ooBon02DZyZvbWILr6nR.X0-] found.
Track | CTDB Status
1 | (9/9) Accurately ripped
2 | (9/9) Accurately ripped
3 | (9/9) Accurately ripped
4 | (9/9) Accurately ripped
5 | (9/9) Accurately ripped
6 | (9/9) Accurately ripped
7 | (9/9) Accurately ripped
8 | (9/9) Accurately ripped
[AccurateRip ID: 00096eb8-0040b26e-73088e08] found.
Track [ CRC | V2 ] Status
01 [955cebfa|496e76a3] (0+2/5) Accurately ripped
02 [73b32992|b3bd550f] (0+0/3) No match
03 [5e1a9b1e|26121cde] (0+0/3) No match
04 [a30f843b|42701c11] (0+0/3) No match
05 [1df8ee9d|7de7c13f] (0+0/3) No match
06 [6191e176|bb2d0098] (0+0/3) No match
07 [f1aa412e|7ca1b66e] (0+0/3) No match
08 [c7ad784e|9444b756] (0+0/3) No match
Offsetted by 1587:
01 [c2a82dec] (0/5) No match (V2 was not tested)
02 [c73c74a6] (0/3) No match (V2 was not tested)
03 [de8a6e87] (0/3) No match (V2 was not tested)
04 [b2b88809] (0/3) No match (V2 was not tested)
05 [99456841] (0/3) No match (V2 was not tested)
06 [309d4875] (0/3) No match (V2 was not tested)
07 [453ad2e5] (0/3) No match (V2 was not tested)
08 [bd0fb463] (0/3) No match (V2 was not tested)

Track Peak [ CRC32 ] [W/O NULL] [ LOG ]
– 100,0 [C225AF57] [1469FAB4] CRC32
01 94,1 [8320E2BF] [E74D32A9]
02 96,9 [2492AD53] [8F1DB2CF]
03 98,1 [DCCCB6C6] [201F7021]
04 98,2 [92B50D9F] [075B82A2]
05 79,2 [E7936FEF] [2BEBD1E9]
06 97,9 [F11B662F] [53283DA5]
07 97,9 [FF2A147E] [E4390B11]
08 100,0 [BFDA1667] [5DB74B49]

The Jimi Hendrix Experience ‎- Electric Ladyland (1968)

All thanks go to original releaser …

The Jimi Hendrix Experience ‎- Electric Ladyland (1968) Download, Warez, DDL, Free, Full Album, Torrent, Legal.

Download


  • Recent Posts

  • Recent Tags