The Jets – The Best Of The Jets (1990) {MCA} **[RE-UP]**

Download
The Jets - The Best Of The Jets (1990) {MCA} **[RE-UP]**

The Jets – The Best Of The Jets (1990) {MCA}
EAC Rip | FLAC with CUE and log | scans | 470 mb
MP3 CBR 320kbps | RAR | 165 mb
Genre: R&B, soul, pop, dance

While it does not feature all of their singles ("I Do You", "Private Number" and "You Better Dance" are missing), it is a great compilation featuring most of their bigger hits plus key album tracks, at a time when people still cared for those. The Jets consisted of members of the Wolfgramm family, a Tongan massive from Minneapolis, Minnesota. True to the Minneapolis Sound of the mid-1980’s, this is full of nice keyboards and synths with the guilty pleasures of a great hit.

1990s The Best of the Jets was the first Jets best-of, and it’s still one of the best, featuring their biggest upbeat hits and ballads, including the irrepressible "Crush" as well as "Make It Real" and "You Got It All." While their cover of "La La (Means I Love You)" isn’t their most inspired moment, tracks like "Curiosity," "Cross My Broken Heart," and "Another You" reflect the mix of dance, urban, and pop that made the Jets’ definitive singles so distinctive. The album also includes two different versions of "Special Kinda Love": the album track and an extended club mix. 20th Century Masters – The Millennium Collection: The Best of the Jets is probably the best Jets retrospective available, but this compilation has a good enough mix of hits and album tracks to make it worthwhile.

The Jets - The Best Of The Jets (1990) {MCA} **[RE-UP]**

01. Special Kinda Love
02. Forever In My Life
03. Crush On You
04. Curiosity
05. Sendin’ All My Love
06. You Got It All
07. Rocket 2 U
08. Sendin’ Out A Message
09. La La Means I Love You (Remix 1990)
10. Cross My Broken Heart
11. Another You
12. Make It Real
13. Special Kinda Love (Vogue Extended Club Version)
–-
Elizabeth Wolfgramm-vocals, percussion
Moana Wolfgramm-vocals, percussion
Kathi Wolfgramm-vocals, keyboards
Leroy Wolfgramm-guitar, keyboards, percussion
Eddie Wolfgramm-vocals, percussion, tenor sax, keyboards, drums
Haini Wolfgramm-vocals, bass
Rudy Wolfgramm-vocals, drums
Eugene Wolfgramm-vocals, percussion

CD Mastered by Tom Baker at Future Disc Systems, Hollywood, California

The Jets - The Best Of The Jets (1990) {MCA} **[RE-UP]**
EAC Log
EAC extraction logfile from 16. June 2006, 14:52 for CD
The Jets / The Best Of The Jets

Used drive : LITE-ON DVDRW SOHW-1633S Adapter: 0 ID: 0
Read mode : Secure with NO C2, accurate stream, disable cache
Read offset correction : 12
Overread into Lead-In and Lead-Out : No

Used output format : Internal WAV Routines
44.100 Hz; 16 Bit; Stereo

Other options :
Fill up missing offset samples with silence : Yes
Delete leading and trailing silent blocks : No
Installed external ASPI interface

Track 1
Filename D:FLACThe Jets – The Best Of The Jets (1990) [FLAC] {MCA}1 – Special Kinda Love.wav

Pre-gap length 0:00:02.49

Peak level 97.1 %
Track quality 100.0 %
Test CRC BF76F73D
Copy CRC BF76F73D
Copy OK

Track 2
Filename D:FLACThe Jets – The Best Of The Jets (1990) [FLAC] {MCA}2 – Forever In My Life.wav

Pre-gap length 0:00:01.20

Peak level 97.2 %
Track quality 100.0 %
Test CRC 1FB64281
Copy CRC 1FB64281
Copy OK

Track 3
Filename D:FLACThe Jets – The Best Of The Jets (1990) [FLAC] {MCA}3 – Crush On You.wav

Pre-gap length 0:00:00.82

Peak level 97.2 %
Track quality 100.0 %
Test CRC 0C1B2415
Copy CRC 0C1B2415
Copy OK

Track 4
Filename D:FLACThe Jets – The Best Of The Jets (1990) [FLAC] {MCA}4 – Curiosity.wav

Pre-gap length 0:00:01.24

Peak level 99.9 %
Track quality 100.0 %
Test CRC 19FA971D
Copy CRC 19FA971D
Copy OK

Track 5
Filename D:FLACThe Jets – The Best Of The Jets (1990) [FLAC] {MCA}5 – Sendin’ All My Love.wav

Pre-gap length 0:00:01.76

Peak level 100.0 %
Track quality 100.0 %
Test CRC 9781788A
Copy CRC 9781788A
Copy OK

Track 6
Filename D:FLACThe Jets – The Best Of The Jets (1990) [FLAC] {MCA}6 – You Got It All.wav

Pre-gap length 0:00:01.44

Peak level 94.9 %
Track quality 100.0 %
Test CRC AD71CFEC
Copy CRC AD71CFEC
Copy OK

Track 7
Filename D:FLACThe Jets – The Best Of The Jets (1990) [FLAC] {MCA}7 – Rocket 2 U.wav

Pre-gap length 0:00:01.36

Peak level 99.9 %
Track quality 100.0 %
Test CRC 0AC7477B
Copy CRC 0AC7477B
Copy OK

Track 8
Filename D:FLACThe Jets – The Best Of The Jets (1990) [FLAC] {MCA}8 – Sendin’ Out A Message.wav

Pre-gap length 0:00:00.30

Peak level 97.2 %
Track quality 100.0 %
Test CRC 470036C4
Copy CRC 470036C4
Copy OK

Track 9
Filename D:FLACThe Jets – The Best Of The Jets (1990) [FLAC] {MCA}9 – La La Means I Love You (Remix 1990).wav

Pre-gap length 0:00:03.08

Peak level 99.9 %
Track quality 100.0 %
Test CRC 0E5F91E7
Copy CRC 0E5F91E7
Copy OK

Track 10
Filename D:FLACThe Jets – The Best Of The Jets (1990) [FLAC] {MCA}10 – Cross My Broken Heart.wav

Pre-gap length 0:00:02.02

Peak level 99.9 %
Track quality 100.0 %
Test CRC DC133E1A
Copy CRC DC133E1A
Copy OK

Track 11
Filename D:FLACThe Jets – The Best Of The Jets (1990) [FLAC] {MCA}11 – Another You.wav

Pre-gap length 0:00:01.88

Peak level 99.8 %
Track quality 100.0 %
Test CRC 4D79421D
Copy CRC 4D79421D
Copy OK

Track 12
Filename D:FLACThe Jets – The Best Of The Jets (1990) [FLAC] {MCA}12 – Make It Real.wav

Pre-gap length 0:00:01.93

Peak level 99.9 %
Track quality 100.0 %
Test CRC 929B7F2E
Copy CRC 929B7F2E
Copy OK

Track 13
Filename D:FLACThe Jets – The Best Of The Jets (1990) [FLAC] {MCA}13 – Special Kinda Love (Vogue Extended Club Version).wav

Pre-gap length 0:00:01.10

Peak level 98.5 %
Track quality 100.0 %
Test CRC 1ADE21E8
Copy CRC 1ADE21E8
Copy OK

No errors occured

End of status report

The Jets - The Best Of The Jets (1990) {MCA} **[RE-UP]**

Check out other titles in my Avaxhome blog or my personal blog.

The Jets – The Best Of The Jets (1990) {MCA} **[RE-UP]** Download, Warez, DDL, Free, Full Album, Torrent, Legal.

Download