The J.B.'s & Fred Wesley – The Lost Album Featuring Watermelon Man (2011)

Download
The J.B.'s & Fred Wesley - The Lost Album Featuring Watermelon Man (2011)

The J.B.’s & Fred Wesley – The Lost Album Featuring Watermelon Man (2011)
EAC Rip | FLAC (Image) +CUE, LOG | 369 MB | Covers Included
Genre: Jazz-Funk, R&B, Instrumental | Label: Hip-O Select | Catalog Number: 2324208

The phrase "lost album" doesn’t bring about the same excitement that it did when Chris Bell’s heart-shattering I Am the Cosmos was finally assembled and released in 1992 – even though there are labels literally dedicated to releasing music of the unknown and unheard variety (and do a fine job to boot). Simply put, we’ve come to expect "lost albums," because this is the age where anything and everything is supposed to be available, isn’t it? Fred Wesley’s Lost Album was never really lost; it was simply unreleased, save for a few tracks issued as singles. In hearing it, one can only ask why. The Lost Album Featuring Watermelon Man is billed to the J.B.’s & Fred Wesley; it is, for the most part, a jazz album – and a fine one. While James Brown handpicked some selections and asked his arranger David Matthews to compose others and write arrangements, Wesley contributed tunes and charts as well. The sessions were actually recorded in New York in 1972 with top-flight session players including Michael and Randy Brecker, Joe Farrell, Eddie Daniels, Hugh McCracken, Seldon Powell, and others. While a righteously funky cover version of Herbie Hancock’s "Watermelon Man" opens the set – with Brown on drums (his only appearance at these sessions) – it’s followed by the loveliest, most beautifully conceived cut on the entire album, Wesley’s ballad "Sweet Loneliness." With a lilting, colorful chart, his trombone offers a multi-timbred lyricism, and the bridge, while brief, is electrifying.
Covers of popular tunes were de rigueur during the era, and a good number of them can be heard here, including fine jazz arrangements of Carole King’s "You’ve Got a Friend," Bill Withers’ "Use Me" (which is so slippery, and Wesley’s trombone so greasy, it actually adds to the funk quotient of the original), and the gorgeous soul-jazz of "Everybody Plays the Fool." Both these tunes add a backing female vocal chorus to contrast with Wesley’s deep grooving, swinging bone. The track planned to be the B-side of "Watermelon Man" as a pre-release single (which was never previously issued) is a faithful jazz rendering of Gilbert O’Sullivan’s "Alone Again (Naturally)." Who would have thought the tune had so much soul? The real scorchers are Matthews’ Count Basie-esque "Seulb," a backwards vamp blues with killer work from Michael Brecker, and "Transmograpification," with an extended imaginative solo by Wesley. Familiar James Brown & the J.B.’s set nuggets such as "J.B. Shout," "Get on the Good Foot," "Funky & Some," and "Back Stabbers" feature wonderful interplay among the horns – especially Randy Brecker and Wesley. The trombonist is certainly front and center on every cut here, making it a grand statement for him. The Lost Album has been beautifully remastered and its sequence extended including other material from these sessions. It nonetheless fleshes out Wesley’s history and reveals him to be as serious a jazz cat as he was a funk kingpin as musical director of the J.B.’s’ funkified presentation. Ultimately, this is one of those "lost albums" that not only meets expectations, but easily exceeds them. AllMusic Review by Thom Jurek

EAC Log
Exact Audio Copy V0.99 prebeta 5 from 4. May 2009

Îò÷¸ò EAC îá èçâëå÷åíèè, âûïîëíåííîì 9. àïðåëÿ 2012, 18:48

The J.B.’s / Fred Wesley & The J.B.’s: Watermelon Man (The Lost Album)

Äèñêîâîä: MATSHITAUJDA755 DVD/CDRW Adapter: 1 ID: 0

Ðåæèì ÷òåíèÿ : Äîñòîâåðíîñòü
Èñïîëüçîâàíèå òî÷íîãî ïîòîêà : Äà
Îòêëþ÷åíèå êýøà àóäèî : Äà
Èñïîëüçîâàíèå óêàçàòåëåé C2 : Íåò

Êîððåêöèÿ ñìåùåíèÿ ïðè ÷òåíèè : 102
Ñïîñîáíîñòü ÷èòàòü îáëàñòè Lead-in è Lead-out : Íåò
Çàïîëíåíèå ïðîïóùåííûõ ñýìïëîâ òèøèíîé : Äà
Óäàëåíèå áëîêîâ ñ òèøèíîé â íà÷àëå è êîíöå : Íåò
Ïðè âû÷èñëåíèÿõ CRC èñïîëüçîâàëèñü íóëåâûå ñýìïëû : Äà
Èíòåðôåéñ : Âñòðîåííûé Win32-èíòåðôåéñ äëÿ Win NT/2000

Âûõîäíîé ôîðìàò : Ïîëüçîâàòåëüñêèé êîäèðîâùèê
Âûáðàííûé áèòðåéò : 768 kBit/s
Êà÷åñòâî : Âûñîêèé
Äîáàâëåíèå ID3-òýãà : Íåò
Óòèëèòà ñæàòèÿ : C:Program FilesExact Audio CopyFLACFLAC.EXE
Äîïîëíèòåëüíûå ïàðàìåòðû : -8 -V %s

TOC èçâëå÷¸ííîãî CD

Òðåê | Ñòàðò | Äëèòåëüíîñòü | Íà÷àëüíûé ñåêòîð | Êîíå÷íûé ñåêòîð
––––––––––––––––––––––––––––––––––-
1 | 0:00.00 | 3:28.11 | 0 | 15610
2 | 3:28.11 | 4:44.25 | 15611 | 36935
3 | 8:12.36 | 3:12.03 | 36936 | 51338
4 | 11:24.39 | 4:18.47 | 51339 | 70735
5 | 15:43.11 | 5:06.18 | 70736 | 93703
6 | 20:49.29 | 8:01.20 | 93704 | 129798
7 | 28:50.49 | 3:47.21 | 129799 | 146844
8 | 32:37.70 | 4:25.32 | 146845 | 166751
9 | 37:03.27 | 3:28.25 | 166752 | 182376
10 | 40:31.52 | 3:57.04 | 182377 | 200155
11 | 44:28.56 | 3:04.02 | 200156 | 213957
12 | 47:32.58 | 2:48.20 | 213958 | 226577
13 | 50:21.03 | 3:01.40 | 226578 | 240192

Õàðàêòåðèñòèêè äèàïàçîíà èçâëå÷åíèÿ è ñîîáùåíèÿ îá îøèáêàõ

Âûáðàííûé äèàïàçîí

Èìÿ ôàéëà H:FLACèThe J.B.’s & Fred Wesley Featuring Watermelon Man – The Lost Album (1972)The J.B.’s – Fred Wesley & The J.B.’s Watermelon Man (The Lost Album).wav

Ïèêîâûé óðîâåíü 100.0 %
Êà÷åñòâî äèàïàçîíà 100.0 %
CRC òåñòà 5946F214
CRC êîïèè 5946F214
Êîïèðîâàíèå… OK

Îøèáîê íå ïðîèçîøëî

AccurateRip: ñâîäêà

Òðåê 1 òî÷íîñòü íå îïðåäåëåíà (äîñòîâåðíîñòü 1) [73C9F32A], AccurateRip âåðíóë [80DD14CE]
Òðåê 2 òî÷íîñòü íå îïðåäåëåíà (äîñòîâåðíîñòü 1) [62F983AC], AccurateRip âåðíóë [1F2B20F8]
Òðåê 3 òî÷íîñòü íå îïðåäåëåíà (äîñòîâåðíîñòü 1) [B8CBE281], AccurateRip âåðíóë [0C9E987D]
Òðåê 4 òî÷íîñòü íå îïðåäåëåíà (äîñòîâåðíîñòü 1) [EEC9DFFF], AccurateRip âåðíóë [FA96B3A7]
Òðåê 5 òî÷íîñòü íå îïðåäåëåíà (äîñòîâåðíîñòü 1) [F3518E2D], AccurateRip âåðíóë [67A3B495]
Òðåê 6 òî÷íîñòü íå îïðåäåëåíà (äîñòîâåðíîñòü 1) [FF3F02E7], AccurateRip âåðíóë [98B55FA3]
Òðåê 7 òî÷íîñòü íå îïðåäåëåíà (äîñòîâåðíîñòü 1) [37C28E85], AccurateRip âåðíóë [DB01656D]
Òðåê 8 òî÷íîñòü íå îïðåäåëåíà (äîñòîâåðíîñòü 1) [3AFEC611], AccurateRip âåðíóë [7A422074]
Òðåê 9 òî÷íîñòü íå îïðåäåëåíà (äîñòîâåðíîñòü 1) [C382E602], AccurateRip âåðíóë [7A719889]
Òðåê 10 òî÷íîñòü íå îïðåäåëåíà (äîñòîâåðíîñòü 1) [31A522E5], AccurateRip âåðíóë [3173F3E9]
Òðåê 11 òî÷íîñòü íå îïðåäåëåíà (äîñòîâåðíîñòü 1) [89AB3A24], AccurateRip âåðíóë [07BB8954]
Òðåê 12 òî÷íîñòü íå îïðåäåëåíà (äîñòîâåðíîñòü 1) [D65EE9CB], AccurateRip âåðíóë [10B8A72A]
Òðåê 13 òî÷íîñòü íå îïðåäåëåíà (äîñòîâåðíîñòü 1) [4B4DD7CC], AccurateRip âåðíóë [8398E06B]

Íè îäèí òðåê íå ïðîø¸ë ïðîâåðêè íà òî÷íîñòü
 âàøåé áàçå ìîæåò áûòü èíîé âàðèàíò øòàìïîâêè äèñêà

Êîíåö îò÷¸òà

Tracklist:
01.Watermelon Man
02.Sweet Loneliness
03.Secret Love
04.Seulb
05.You’ve Got A Friend
06.Transmograpfication
07.Use Me
08.Get On The Good Foot
09.Everybody Plays The Fool

10.Alone Again (Naturally) (Bonus Track)
11.Back Stabbers (Bonus Track)
12.J.B. Shout (Bonus Track)
13.Funky & Some (Bonus Track)

The J.B.'s & Fred Wesley – The Lost Album Featuring Watermelon Man (2011) Download, Warez, DDL, Free, Full Album, Torrent, Legal.

Download