The Isley Brothers – Between The Sheets (1983) [2011 BBR]

Download
The Isley Brothers - Between The Sheets (1983) [2011 BBR]

EAC Rip | FLAC (Tracks) +CUE, LOG | 500 MB | Covers Included
Genre: Soul, R&B, Funk | Label: Big Break Records | Catalog Number: CDBBR0067

Originally formed as a gospel quartet in the 1950s, The Isley Brothers went on to massive success in a decades-spanning career which has seen them produce music in genres from doo-wop to R&B, funk, soul and rock.Reaching their third decade as a musical act in the 1970s, The Isley Brothers continued to reinvent themselves with line-up changes and new sounds ranging from 1973 s hit rock anthem Summer Breeze to the smash hit slow jam Don’t Say Goodnight (It s Time for Love) in 1980, incorporating elements of funk and disco along the way.The 1983 release of the album Between The Sheets brought yet another revolution in the band’s sound, as they added synthesizers and electronic beats. The title track became a smash hit, bringing the digital era to the top of the R&B charts, where it reached #3. The track also achieved international success, reaching the UK Singles chart. The oft covered follow-up single, Choosey Lover, gave the band their second consecutive top ten R&B hit, reaching #6.

EAC Log
Exact Audio Copy V1.0 beta 1 from 15. November 2010

EAC extraction logfile from 4. December 2011, 23:22

The Isley Brothers / Between The Sheets

Used drive : PHILIPS DVDR1628P1 Adapter: 4 ID: 0

Read mode : Secure
Utilize accurate stream : Yes
Defeat audio cache : Yes
Make use of C2 pointers : No

Read offset correction : 618
Overread into Lead-In and Lead-Out : No
Fill up missing offset samples with silence : Yes
Delete leading and trailing silent blocks : No
Null samples used in CRC calculations : Yes
Used interface : Native Win32 interface for Win NT & 2000
Gap handling : Appended to previous track

Used output format : User Defined Encoder
Selected bitrate : 256 kBit/s
Quality : High
Add ID3 tag : No
Command line compressor : C:Program FilesFLACflac.exe
Additional command line options : -8 -V -T "ARTIST=%a" -T "TITLE=%t" -T "ALBUM=%g" -T "DATE=%y" -T "TRACKNUMBER=%n" -T "TOTALTRACKS=%x" -T "GENRE=%m" -T "ALBUMARTIST=%v" -T "ALBUM ARTIST=%v" -T "COMMENT=EAC Secure Mode, Test & Copy, AccurateRip, FLAC -8" %s

TOC of the extracted CD

Track | Start | Length | Start sector | End sector
––––––––––––––––––––––––––––-
1 | 0:00.00 | 4:41.58 | 0 | 21132
2 | 4:41.58 | 5:10.66 | 21133 | 44448
3 | 9:52.49 | 4:40.03 | 44449 | 65451
4 | 14:32.52 | 5:39.56 | 65452 | 90932
5 | 20:12.33 | 4:50.53 | 90933 | 112735
6 | 25:03.11 | 5:20.12 | 112736 | 136747
7 | 30:23.23 | 4:21.62 | 136748 | 156384
8 | 34:45.10 | 4:12.59 | 156385 | 175343
9 | 38:57.69 | 3:46.36 | 175344 | 192329
10 | 42:44.30 | 3:37.45 | 192330 | 208649
11 | 46:22.00 | 4:58.70 | 208650 | 231069
12 | 51:20.70 | 4:44.38 | 231070 | 252407
13 | 56:05.33 | 4:38.48 | 252408 | 273305
14 | 60:44.06 | 4:48.59 | 273306 | 294964
15 | 65:32.65 | 4:56.08 | 294965 | 317172

Track 1

Filename C:addis gugsa killed my hdd1 – Choosey Lover.wav

Pre-gap length 0:00:02.00

Peak level 98.8 %
Extraction speed 1.3 X
Track quality 100.0 %
Test CRC A0AD9106
Copy CRC A0AD9106
Track not present in AccurateRip database
Copy OK

Track 2

Filename C:addis gugsa killed my hdd2 – Touch Me.wav

Peak level 98.8 %
Extraction speed 1.5 X
Track quality 100.0 %
Test CRC 0B0D0A34
Copy CRC 0B0D0A34
Track not present in AccurateRip database
Copy OK

Track 3

Filename C:addis gugsa killed my hdd3 – I Need Your Body.wav

Peak level 98.8 %
Extraction speed 1.7 X
Track quality 100.0 %
Test CRC 60ABE428
Copy CRC 60ABE428
Track not present in AccurateRip database
Copy OK

Track 4

Filename C:addis gugsa killed my hdd4 – Between The Sheets.wav

Peak level 98.8 %
Extraction speed 1.8 X
Track quality 100.0 %
Test CRC 40BA2176
Copy CRC 40BA2176
Track not present in AccurateRip database
Copy OK

Track 5

Filename C:addis gugsa killed my hdd5 – Let’s Make Love Tonight.wav

Peak level 98.8 %
Extraction speed 2.0 X
Track quality 100.0 %
Test CRC 155AF173
Copy CRC 155AF173
Track not present in AccurateRip database
Copy OK

Track 6

Filename C:addis gugsa killed my hdd6 – Ballad Of The Fallen Soldier.wav

Pre-gap length 0:00:01.73

Peak level 98.8 %
Extraction speed 2.1 X
Track quality 100.0 %
Test CRC 1A26ABA8
Copy CRC 1A26ABA8
Track not present in AccurateRip database
Copy OK

Track 7

Filename C:addis gugsa killed my hdd7 – Slow Down Children.wav

Peak level 98.8 %
Extraction speed 2.2 X
Track quality 100.0 %
Test CRC 4AC14B57
Copy CRC 4AC14B57
Track not present in AccurateRip database
Copy OK

Track 8

Filename C:addis gugsa killed my hdd8 – Way Out Lover.wav

Peak level 98.8 %
Extraction speed 2.2 X
Track quality 100.0 %
Test CRC 579BCFE7
Copy CRC 579BCFE7
Track not present in AccurateRip database
Copy OK

Track 9

Filename C:addis gugsa killed my hdd9 – Gettin’ Over.wav

Peak level 98.8 %
Extraction speed 2.0 X
Track quality 99.9 %
Test CRC C6E5E184
Copy CRC C6E5E184
Track not present in AccurateRip database
Copy OK

Track 10

Filename C:addis gugsa killed my hdd10 – Rock You Good.wav

Peak level 98.8 %
Extraction speed 2.3 X
Track quality 100.0 %
Test CRC 9CAE3C02
Copy CRC 9CAE3C02
Track not present in AccurateRip database
Copy OK

Track 11

Filename C:addis gugsa killed my hdd11 – Between The Sheets ( Instrumental).wav

Pre-gap length 0:00:03.73

Peak level 98.8 %
Extraction speed 2.5 X
Track quality 100.0 %
Test CRC 758D1CC1
Copy CRC 758D1CC1
Track not present in AccurateRip database
Copy OK

Track 12

Filename C:addis gugsa killed my hdd12 – Choosey Lover (Instrumental).wav

Pre-gap length 0:00:01.73

Peak level 98.8 %
Extraction speed 2.5 X
Track quality 100.0 %
Test CRC 2D357032
Copy CRC 2D357032
Track not present in AccurateRip database
Copy OK

Track 13

Filename C:addis gugsa killed my hdd13 – I Need Your Body (Instrumental).wav

Pre-gap length 0:00:01.73

Peak level 98.8 %
Extraction speed 2.6 X
Track quality 100.0 %
Test CRC 898E39DB
Copy CRC 898E39DB
Track not present in AccurateRip database
Copy OK

Track 14

Filename C:addis gugsa killed my hdd14 – Let’s Make Love Tonight (Instrumental).wav

Pre-gap length 0:00:01.73

Peak level 98.8 %
Extraction speed 2.8 X
Track quality 100.0 %
Test CRC 06DA8FF9
Copy CRC 06DA8FF9
Track not present in AccurateRip database
Copy OK

Track 15

Filename C:addis gugsa killed my hdd15 – Between The Sheets (Single Version).wav

Pre-gap length 0:00:01.73

Peak level 98.8 %
Extraction speed 2.9 X
Track quality 100.0 %
Test CRC 8220B1B0
Copy CRC 8220B1B0
Track not present in AccurateRip database
Copy OK

None of the tracks are present in the AccurateRip database

No errors occurred

End of status report

==== Log checksum 04D5488EAD5B5B6F42FE542529FE5DFF8AE0C761E1F43C519774069ABFB825F6 ====

Tracklist:
01.Choosey Lover
02.Touch Me
03.I Need Your Body
04.Between The Sheets
05.Let’s Make Love Tonight
06.Ballad Of The Fallen Soldier
07.Slow Down Children
08.Way Out Lover
09.Gettin’ Over
10.Rock You Good
11.Between The Sheets ( Instrumental)
12.Choosey Lover (Instrumental)
13.I Need Your Body (Instrumental)
14.Let’s Make Love Tonight (Instrumental)
15.Between The Sheets (Single Version)

The Isley Brothers – Between The Sheets (1983) [2011 BBR] Download, Warez, DDL, Free, Full Album, Torrent, Legal.

Download