The Hanover Band, Anthony Halstead – Carl Friedrich Abel: Symphonies op.17 Nos 1-6 (1994)

Download
The Hanover Band, Anthony Halstead - Carl Friedrich Abel: Symphonies op.17 Nos 1-6 (1994)

The Hanover Band, Anthony Halstead – Carl Friedrich Abel: Symphonies op.17 Nos 1-6 (1994)
EAC | FLAC (image+.cue, log) | Covers Included | 64:25 | 366 MB
Genre: Classical | Label: CPO | Catalog: 999 214-2

The Hanover Band is a period instrument chamber orchestra based in Sussex, England. It attracted much attention early on for its individual performance style, which often puzzled critics and created controversy. Certain recordings, the Beethoven nine symphonies in particular, have managed to generate both awards and sharp criticism.
Founded in 1980 by Caroline Brown, the Hanover Band has given concerts in a variety of locations, but has resided in the Old Market Building, Hove, Sussex, since November 1998. Its first concert took place at St. Margaret’s Westminster (London) on March 26, 1980, under the direction of Marie Leonhardt. In May of that year, Monica Huggett was appointed music director of the Hanover Band. In 1981, Roy Goodman became a regular conductor and over the years, other illustrious figures would guest conduct the group, such as Charles Mackerras and Nicholas McGegan. By January, 1982, the Hanover Band’s first recording was issued on Nimbus Records, an all-Beethoven release featuring Huggett conducting the Symphony No. 1, paired with the Piano Concerto No. 1, for which soloist Mary Verney performed on the fortepiano. This recording was the first in a set that would include all nine Beethoven symphonies issued later in the decade on Nimbus. On March 31, 1982, Charles Mackerras led the ensemble in a memorable concert of music by Haydn in Westminster Abbey, marking the 250th anniversary of the composer’s birth. Over the next few years, the Hanover Band issued recordings at an increasing rate and gave numerous concerts and tours abroad. The ensemble’s first tour of the United States came in October, 1985. By 2002, the group had made ten such concert tours of the U.S. In 1986, Roy Goodman was appointed principal conductor of the ensemble. He led the players in many successful concerts over the years, but perhaps his greatest legacy was the completion of the Beethoven symphony cycle started by Huggett. Goodman finished the cycle in 1988 and the set received at least two major awards, the first from the Music Retailers Association (Best Box Set) in 1989, and a Record of the Year Award from Fono Forum (1990). Yet many critics expressed varying degrees of disapproval of the performances, largely owing to brisk tempos and what they considered unusual phrasing. In 1994, Roy Goodman stepped down as principal conductor and was succeeded by Anthony Halstead. The Hanover Wind Band was formed the following year as an off-shoot of the ensemble. Its focus has been repertory from the latter half of the 19th and early 20th centuries, taking on serious as well as ragtime music. In 1999, the Hanover Band launched a one-year music education project in Brighton & Hove entitled "No Beethoven, No Beat," successfully introducing young audiences to the symphonies of Beethoven. In 2001, Halstead and the Hanover Band completed a massive recording project they began in 1995 for the label cpo that offered the complete works of Johann Christian Bach on 22 discs.

discogs

The Hanover Band, Anthony Halstead - Carl Friedrich Abel: Symphonies op.17 Nos 1-6 (1994)

Track List:

Symphony Op.17 No.1 in E flat major
01. Allegro maestoso [00:03:43]
02. Andante [00:02:00]
03. Allegro assai [00:02:18]
Symphony Op.17 No.2 in B flat major
04. Allegro [00:04:35]
05. Andante [00:02:57]
06. Allegro assai, quasi presto [00:03:16]
Symphony Op.17 No.3 in D major
07. Allegro maestoso [00:04:46]
08. Andante [00:02:28]
09. Allegro [00:03:44]
Symphony Op.17 No.4 in C major
10. Allegro maestoso [00:04:54]
11. Andante [00:03:38]
12. Allegro ma non troppo presto [00:03:53]
Symphony Op.17 No.5 in B flat major
13. Allegro [00:04:32]
14. Andante [00:04:01]
15. Tempo di Minuetto [00:03:06]
Symphony Op.17 No.6 in F flat major
16. Allegro (molto) [00:03:53]
17. Andante [00:03:14]
18. Non troppo presto [00:03:20]

Performers:
The Hanover Band
Anthony Halstead, conductor

EAC Log
Exact Audio Copy V1.3 from 2. September 2016

EAC extraction logfile from 13. June 2017, 18:53

Abel, Carl Friedrich / Symphonien op. 17 (Halstead, Hanover Band)

Used drive : HL-DT-STDVDRAM GSA-4081B Adapter: 1 ID: 1

Read mode : Secure
Utilize accurate stream : Yes
Defeat audio cache : Yes
Make use of C2 pointers : No

Read offset correction : 667
Overread into Lead-In and Lead-Out : No
Fill up missing offset samples with silence : Yes
Delete leading and trailing silent blocks : No
Null samples used in CRC calculations : Yes
Used interface : Native Win32 interface for Win NT & 2000

Used output format : User Defined Encoder
Selected bitrate : 768 kBit/s
Quality : High
Add ID3 tag : No
Command line compressor : C:Program FilesExact Audio CopyFLACFLAC.EXE
Additional command line options : -6 -V -T "ARTIST=%artist%" -T "TITLE=%title%" -T "ALBUM=%albumtitle%" -T "DATE=%year%" -T "TRACKNUMBER=%tracknr%" -T "GENRE=%genre%" -T "COMMENT=%comment%" -T "BAND=%albuminterpret%" -T "ALBUMARTIST=%albuminterpret%" -T "COMPOSER=%composer%" %haslyrics%–tag-from-file=LYRICS="%lyricsfile%"%haslyrics% -T "DISCNUMBER=%cdnumber%" -T "TOTALDISCS=%totalcds%" -T "TOTALTRACKS=%numtracks%" %hascover%–picture="%coverfile%"%hascover% %source% -o %dest%

TOC of the extracted CD

Track | Start | Length | Start sector | End sector
––––––––––––––––––––––––––––-
1 | 0:00.00 | 3:43.32 | 0 | 16756
2 | 3:43.32 | 2:00.20 | 16757 | 25776
3 | 5:43.52 | 2:18.08 | 25777 | 36134
4 | 8:01.60 | 4:35.22 | 36135 | 56781
5 | 12:37.07 | 2:57.03 | 56782 | 70059
6 | 15:34.10 | 3:16.37 | 70060 | 84796
7 | 18:50.47 | 4:46.63 | 84797 | 106309
8 | 23:37.35 | 2:28.25 | 106310 | 117434
9 | 26:05.60 | 3:44.32 | 117435 | 134266
10 | 29:50.17 | 4:54.43 | 134267 | 156359
11 | 34:44.60 | 3:38.17 | 156360 | 172726
12 | 38:23.02 | 3:53.35 | 172727 | 190236
13 | 42:16.37 | 4:32.03 | 190237 | 210639
14 | 46:48.40 | 4:01.27 | 210640 | 228741
15 | 50:49.67 | 3:06.50 | 228742 | 242741
16 | 53:56.42 | 3:53.60 | 242742 | 260276
17 | 57:50.27 | 3:14.00 | 260277 | 274826
18 | 61:04.27 | 3:20.58 | 274827 | 289884

Range status and errors

Selected range

Filename C:UsersMiguel AngelDownloadsAbel_Symphonien op 17_Halstead_Hanover BandAbel, Carl Friedrich – Symphonien op. 17 (Halstead, Hanover Band).wav

Peak level 98.3 %
Extraction speed 4.4 X
Range quality 99.9 %
Test CRC DEA65467
Copy CRC DEA65467
Copy OK

No errors occurred

AccurateRip summary

Track 1 accurately ripped (confidence 6) [397A39D0] (AR v2)
Track 2 accurately ripped (confidence 6) [F95B90F0] (AR v2)
Track 3 accurately ripped (confidence 6) [16204252] (AR v2)
Track 4 accurately ripped (confidence 6) [3BE2903B] (AR v2)
Track 5 accurately ripped (confidence 6) [FB8C2621] (AR v2)
Track 6 accurately ripped (confidence 6) [20B11A5B] (AR v2)
Track 7 accurately ripped (confidence 6) [C7EEF180] (AR v2)
Track 8 accurately ripped (confidence 6) [E5B9D26C] (AR v2)
Track 9 accurately ripped (confidence 6) [4A597EED] (AR v2)
Track 10 accurately ripped (confidence 6) [E05779A1] (AR v2)
Track 11 accurately ripped (confidence 6) [573C0699] (AR v2)
Track 12 accurately ripped (confidence 6) [7A9F238C] (AR v2)
Track 13 accurately ripped (confidence 6) [D2F1B1A4] (AR v2)
Track 14 accurately ripped (confidence 6) [100E07C2] (AR v2)
Track 15 accurately ripped (confidence 6) [3E3D8CA6] (AR v2)
Track 16 accurately ripped (confidence 6) [E03E3B6E] (AR v2)
Track 17 accurately ripped (confidence 6) [95C04A20] (AR v2)
Track 18 accurately ripped (confidence 6) [7B0F3AA3] (AR v2)

All tracks accurately ripped

End of status report

–– CUETools DB Plugin V2.1.6

[CTDB TOCID: 3mZlQXsHsuf0cs48sd4_UTQNE50-] found
Submit result: 3mZlQXsHsuf0cs48sd4_UTQNE50- has been confirmed
Track | CTDB Status
1 | (15/15) Accurately ripped
2 | (15/15) Accurately ripped
3 | (15/15) Accurately ripped
4 | (14/15) Accurately ripped
5 | (15/15) Accurately ripped
6 | (14/15) Accurately ripped
7 | (15/15) Accurately ripped
8 | (15/15) Accurately ripped
9 | (15/15) Accurately ripped
10 | (15/15) Accurately ripped
11 | (15/15) Accurately ripped
12 | (15/15) Accurately ripped
13 | (14/15) Accurately ripped
14 | (15/15) Accurately ripped
15 | (15/15) Accurately ripped
16 | (15/15) Accurately ripped
17 | (15/15) Accurately ripped
18 | (15/15) Accurately ripped

==== Log checksum 2693987C1B8D0259BB700A124208E24515E13C530992326F399D27817C46898D ====

CUETools Log
[CUETools log; Date: 29.07.2017 9:49:56; Version: 2.1.5]
[CTDB TOCID: 3mZlQXsHsuf0cs48sd4_UTQNE50-] found.
Track | CTDB Status
1 | (17/17) Accurately ripped
2 | (17/17) Accurately ripped
3 | (17/17) Accurately ripped
4 | (16/17) Accurately ripped
5 | (17/17) Accurately ripped
6 | (16/17) Accurately ripped
7 | (17/17) Accurately ripped
8 | (17/17) Accurately ripped
9 | (17/17) Accurately ripped
10 | (17/17) Accurately ripped
11 | (17/17) Accurately ripped
12 | (17/17) Accurately ripped
13 | (16/17) Accurately ripped
14 | (17/17) Accurately ripped
15 | (17/17) Accurately ripped
16 | (17/17) Accurately ripped
17 | (17/17) Accurately ripped
18 | (17/17) Accurately ripped
[AccurateRip ID: 0028d045-02288ed5-fe0f1912] found.
Track [ CRC | V2 ] Status
01 [a77f8ebc|397a39d0] (04+06/21) Accurately ripped
02 [1715ad10|f95b90f0] (04+06/21) Accurately ripped
03 [04b487f4|16204252] (03+06/19) Accurately ripped
04 [96e48270|3be2903b] (04+06/20) Accurately ripped
05 [28a42d38|fb8c2621] (04+06/19) Accurately ripped
06 [e3f6719d|20b11a5b] (04+06/19) Accurately ripped
07 [70d979a4|c7eef180] (04+06/21) Accurately ripped
08 [a8a33d78|e5b9d26c] (04+06/21) Accurately ripped
09 [b7bfed86|4a597eed] (03+06/19) Accurately ripped
10 [98fa6b51|e05779a1] (04+06/21) Accurately ripped
11 [74ca3383|573c0699] (04+06/20) Accurately ripped
12 [4ded6327|7a9f238c] (04+06/21) Accurately ripped
13 [a4af0440|d2f1b1a4] (04+06/19) Accurately ripped
14 [c4135bfc|100e07c2] (04+06/21) Accurately ripped
15 [7937a3e4|3e3d8ca6] (04+06/20) Accurately ripped
16 [f10f7aba|e03e3b6e] (04+06/20) Accurately ripped
17 [42dc0d34|95c04a20] (04+06/21) Accurately ripped
18 [76715a47|7b0f3aa3] (04+06/20) Accurately ripped
Offsetted by -679:
01 [fa1aad75] (02/21) Accurately ripped
02 [ec432ea4] (02/21) Accurately ripped
03 [e25947fe] (02/19) Accurately ripped
04 [a4d04c7b] (02/20) Accurately ripped
05 [f0c77cec] (02/19) Accurately ripped
06 [5b1bb0fc] (02/19) Accurately ripped
07 [8da43ee5] (02/21) Accurately ripped
08 [1b5ccf74] (02/21) Accurately ripped
09 [9ac90dd8] (02/19) Accurately ripped
10 [65b632a1] (02/21) Accurately ripped
11 [d7d5d86d] (02/20) Accurately ripped
12 [dd2d179b] (02/21) Accurately ripped
13 [c1297651] (02/19) Accurately ripped
14 [6b4b7dec] (02/21) Accurately ripped
15 [3dcb878a] (02/20) Accurately ripped
16 [8f323b6a] (02/20) Accurately ripped
17 [59ea218c] (02/21) Accurately ripped
18 [270f6a7d] (02/20) Accurately ripped
Offsetted by -669:
01 [9f77a143] (00/21) No match (V2 was not tested)
02 [455dd151] (00/21) No match (V2 was not tested)
03 [c2f13158] (00/19) No match (V2 was not tested)
04 [babc94ad] (00/20) No match (V2 was not tested)
05 [28671d6d] (00/19) No match (V2 was not tested)
06 [c281b14f] (00/19) No match (V2 was not tested)
07 [1f5173e1] (00/21) No match (V2 was not tested)
08 [3066fb4b] (00/21) No match (V2 was not tested)
09 [8294d629] (00/19) No match (V2 was not tested)
10 [9f7067a2] (00/21) No match (V2 was not tested)
11 [2c71bbe6] (00/20) No match (V2 was not tested)
12 [5ecf3506] (00/21) No match (V2 was not tested)
13 [168682d6] (00/19) No match (V2 was not tested)
14 [3268d57f] (00/21) No match (V2 was not tested)
15 [816fd989] (00/20) No match (V2 was not tested)
16 [7c58ac0b] (00/20) No match (V2 was not tested)
17 [c5d88a6c] (00/21) No match (V2 was not tested)
18 [1d44e18b] (00/20) No match (V2 was not tested)

Track Peak [ CRC32 ] [W/O NULL] [ LOG ]
– 98,3 [DEA65467] [417A9D5F] CRC32
01 93,9 [F1A2F132] [61EE9234]
02 37,3 [F96C378A] [A4B7D6BC]
03 90,6 [578BB93D] [9787B525]
04 88,0 [04ECD2E8] [C1273A08]
05 40,3 [D4B2689C] [2D91DA34]
06 82,7 [3F0E75DD] [A4287E7E]
07 98,3 [EF0E609C] [2B7D51A9]
08 40,4 [9D7511E6] [6A41CD15]
09 80,9 [B18D0894] [D3F1EB17]
10 87,6 [22A4D3CE] [DEF5B886]
11 53,7 [C25ECE68] [97F0694A]
12 72,3 [75A86718] [C2348F55]
13 65,0 [74EC51F0] [361AF630]
14 37,8 [79A188D4] [9295E22C]
15 75,5 [2B3931B1] [6F23C0DE]
16 96,6 [0C1698CD] [EBE21218]
17 37,2 [04376549] [D8D74249]
18 95,8 [C20C8214] [596FA71A]

Thanks to the Original ripper (unknown)!

Download:

The Hanover Band, Anthony Halstead – Carl Friedrich Abel: Symphonies op.17 Nos 1-6 (1994) Download, Warez, DDL, Free, Full Album, Torrent, Legal.

Download