The Gigi Gryce/Donald Byrd Jazz Laboratory & The Cecil Taylor Quartet – At Newport (1957) {2002 Verve Music Group} **[RE-UP]**

Download
The Gigi Gryce/Donald Byrd Jazz Laboratory & The Cecil Taylor Quartet - At Newport (1957) {2002 Verve Music Group} **[RE-UP]**

The Gigi Gryce, Donald Byrd Jazz Laboratory & The Cecil Taylor Quartet – At Newport (1957) {2002 Verve Music Group}
EAC Rip | FLAC with CUE and log | scans | 165 mb
MP3 CBR 320kbps | RAR | 110 mb
Genre: jazz

At Newport is the 1957 album by two groups: The Gigi Gryce, Donald Byrd Jazz Laboratory & The Cecil Taylor Quartet. Each group has three songs each. Originally released on Verve, this was released by Verve Music Group on 20 August, 2002.

At first combining a set by Cecil Taylor with another by the Gigi Gryce-Donald Byrd Jazz Laboratory seems like an odd pairing, but it ends up working rather well. These live recordings, which come from the 1957 Newport Jazz Festival, have stood the test of time rather well. Taylor’s style of piano playing is not that far removed from Thelonious Monk in his interpretation of Billy Strayhorn’s "Johnny Come Lately," though his dissonant, angular approach is a bit busier; Steve Lacy’s nasal-toned soprano sax and solid rhythmic support from bassist Buell Neidlinger and drummer Denis Charles fuel Taylor’s fiery playing. Both Taylor’s "Nona’s Blues" and "Tune 2" are fairly accessible in comparison to his works in the decade which followed. The Gigi Gryce-Donald Byrd Jazz Laboratory – with pianist Hank Jones, bassist Wendell Marshall, and drummer Osie Johnson – is firmly rooted in hard bop. Oddly enough, none of the three pieces were written by either Gryce or Byrd, though they were both already budding composers at this point in their respective careers. But their brief program – which includes Ray Bryant’s "Splittin’ (Ray’s Way)," the blues "Batland," and a rousing rendition of "Love for Sale" – is a good representation of this unfortunately short-lived and under-recorded group. Reissued as a part of Verve’s limited-edition series in the summer of 2002, this valuable CD will be available until the summer of 2005.

The Gigi Gryce/Donald Byrd Jazz Laboratory & The Cecil Taylor Quartet - At Newport (1957) {2002 Verve Music Group} **[RE-UP]**

1. The Cecil Taylor Quartet – Johnny Come Lately
2. The Cecil Taylor Quartet – Nona’s Blues
3. The Cecil Taylor Quartet – Tune 2
4. The Gigi Gryce-Donald Byrd Jazz Laboratory – Splittin’
5. The Gigi Gryce-Donald Byrd Jazz Laboratory – Batland
6. The Gigi Gryce-Donald Byrd Jazz Laboratory – Love For Sale

–-
Cecil Taylor Quartet
Cecil Taylor-piano
Steve Lacy-soprano saxophone
Buell Neidlinger-bass
Denis Charles-drums

The Gigi Gryce-Donald Byrd Jazz Laboratory
Gigi Gryce-alto saxophone
Donald Byrd-trumpet
Hank Jones-piano
Wendell Marshall-bass
Osie Johnson-drums

Recorded live at the Newport Jazz Festival, Newport, Rhode Island in July 1957

CD mastered by Kevin Reeves at Universal Mastering Studios-East

EAC Log
EAC extraction logfile from 11. May 2006, 22:47 for CD
Various / At Newport

Used drive : LITE-ON DVDRW SOHW-1633S Adapter: 0 ID: 0
Read mode : Secure with NO C2, accurate stream, disable cache
Read offset correction : 12
Overread into Lead-In and Lead-Out : No

Used output format : Internal WAV Routines
44.100 Hz; 16 Bit; Stereo

Other options :
Fill up missing offset samples with silence : Yes
Delete leading and trailing silent blocks : No
Installed external ASPI interface

Track 1
Filename D:FLACThe Gigi Gryce, Donald Byrd Jazz Laboratory & The Cecil Taylor Quartet – At Newport (1957) [FLAC] {2002 Verve Music Group}1 – The Cecil Taylor Quartet – Johnny Come Lately.wav

Pre-gap length 0:00:02.00

Peak level 70.7 %
Track quality 100.0 %
Test CRC 29E8B76B
Copy CRC 29E8B76B
Copy OK

Track 2
Filename D:FLACThe Gigi Gryce, Donald Byrd Jazz Laboratory & The Cecil Taylor Quartet – At Newport (1957) [FLAC] {2002 Verve Music Group}2 – The Cecil Taylor Quartet – Nona’s Blues.wav

Peak level 70.7 %
Track quality 100.0 %
Test CRC 0DAE840E
Copy CRC 0DAE840E
Copy OK

Track 3
Filename D:FLACThe Gigi Gryce, Donald Byrd Jazz Laboratory & The Cecil Taylor Quartet – At Newport (1957) [FLAC] {2002 Verve Music Group}3 – The Cecil Taylor Quartet – Tune 2.wav

Peak level 70.7 %
Track quality 100.0 %
Test CRC 826C473B
Copy CRC 826C473B
Copy OK

Track 4
Filename D:FLACThe Gigi Gryce, Donald Byrd Jazz Laboratory & The Cecil Taylor Quartet – At Newport (1957) [FLAC] {2002 Verve Music Group}4 – The Gigi Gryce, Donald Byrd Jazz Laboratory – Splittin’.wav

Pre-gap length 0:00:04.04

Peak level 64.7 %
Track quality 99.9 %
Test CRC 44849227
Copy CRC 44849227
Copy OK

Track 5
Filename D:FLACThe Gigi Gryce, Donald Byrd Jazz Laboratory & The Cecil Taylor Quartet – At Newport (1957) [FLAC] {2002 Verve Music Group}5 – The Gigi Gryce, Donald Byrd Jazz Laboratory – Batland.wav

Peak level 65.7 %
Track quality 100.0 %
Test CRC 94E77949
Copy CRC 94E77949
Copy OK

Track 6
Filename D:FLACThe Gigi Gryce, Donald Byrd Jazz Laboratory & The Cecil Taylor Quartet – At Newport (1957) [FLAC] {2002 Verve Music Group}6 – The Gigi Gryce, Donald Byrd Jazz Laboratory – Love For Sale.wav

Peak level 66.0 %
Track quality 100.0 %
Test CRC 53821BA6
Copy CRC 53821BA6
Copy OK

No errors occured

End of status report

The Gigi Gryce/Donald Byrd Jazz Laboratory & The Cecil Taylor Quartet - At Newport (1957) {2002 Verve Music Group} **[RE-UP]**

Check out other titles in my Avaxhome blog or my personal blog.

The Gigi Gryce/Donald Byrd Jazz Laboratory & The Cecil Taylor Quartet – At Newport (1957) {2002 Verve Music Group} **[RE-UP]** Download, Warez, DDL, Free, Full Album, Torrent, Legal.

Download