The Freddie Mercury Tribute Concert (2013)

Download
The Freddie Mercury Tribute Concert (2013)

The Freddie Mercury Tribute Concert (2013)
Blu-ray: MPEG-4 AVC, 20127 kbps, 1920×1080, 29.970 fps
LPCM 2.0, 1536 kbps / TS-HD High-Res Audio 5.1, 48 kHz, 2046 kbps, 24-bit
Rock | Eagle Vision, ERSBD3007 | Scans Included | ~ 46.57 Gb

The AIDS charity concert staged by the surviving members of Queen on April 20, 1992, at Wembley Stadium was an appropriate send-off for the band’s late lead singer, Freddie Mercury, who had succumbed to the disease five months earlier. The flamboyant Mercury was always in his element before gigantic crowds like the one that filled Wembley one last time, and his stand-ins for the occasion – Gary Cherone (then of Extreme), Roger Daltrey, Joe Elliott (Def Leppard), James Hetfield (Metallica), Elton John, Annie Lennox, George Michael, Liza Minnelli, Robert Plant, Axl Rose (Guns N’ Roses), Seal, Lisa Stansfield, Paul Young, and Zucchero – were artists who both knew how to work such audiences and also had at least some of his flair for performing. Some, indeed, went too far, with Cherone, for example, turning in a hyperactive display during "Hammer to Fall." All brought their personal styles and interpretations, sometimes to telling effect, such as Minnelli’s wry reading of the line "Mistakes, I’ve made a few" in "We Are the Champions." (David Bowie, who appeared on three songs, can’t really be called a Mercury stand-in, since he only sang his own part in "Under Pressure," followed by his own songs "All the Young Dudes" [featuring Mott the Hoople’s Ian Hunter] and "Heroes.") In the hour-long documentary accompanying the 105-minute concert on this double DVD released to mark the concert’s tenth anniversary, Plant notes that none of the performers could sing Queen’s songs as well as Mercury – and in the right keys – but they often provide interesting glosses on those songs, making this a valuable document for Queen fans, apart from the charity aspect. They may, however, long for more of Mercury himself than the brief video collages used to tide the Wembley crowd over during set changes that are included on the second disc.

by William Ruhlmann, allmusic

The Freddie Mercury Tribute Concert (2013):

The Freddie Mercury Tribute Concert (2013)

Tracklist:

Opening Acts
Intro
Brian May, Roger Taylor, John Deacon Introduction
Enter Sandman – Metallica
Sad But True – Metallica
Nothing Else Matters – Metallica
Freddie Mercury montage
Queen Medley: Mustapha / Bohemian Rhapsody / Keep Yourself Alive / I Want to Break Free / Fat Bottomed Girls / Bicycle Race / Another One Bites the Dust / Stone Cold Crazy / Radio Ga-Ga – Extreme
Freddie Mercury montage
Now I’m Here – Def Leppard and Brian May
Video: I’m Going Slightly Mad – Queen
Too Late God – Bob Geldof
Paradise City – Guns N’ Roses
Knocking on Heaven’s Door – Guns N’ Roses
Speech by Elizabeth Taylor
• Main Set by Queen +
Tie Your Mother Down – Joe Elliott, Slash and Queen
I Want It All – Roger Daltrey, Tony Iommi and Queen
Las Palabras de Amor – Zucchero and Queen
Hammer to Fall – Gary Cherone, Tony Iommi and Queen
Stone Cold Crazy – James Hetfield, Tony Iommi and Queen
Crazy Little Thing Called Love – Robert Plant and Queen
Too Much Love Will Kill You – Brian May
Radio Ga Ga – Paul Young and Queen
Who Wants to Live Forever – Seal and Queen
I Want to Break Free – Lisa Stansfield and Queen
Under Pressure – David Bowie, Annie Lennox and Queen
All the Young Dudes – Ian Hunter, David Bowie, Mick Ronson and Queen
Heroes – David Bowie, Mick Ronson and Queen
’39 – George Michael and Queen
These Are the Days Of Our Lives – George Michael, Lisa Stansfield and Queen
Somebody to Love – George Michael, London Gospel Choir and Queen
Bohemian Rhapsody – Elton John, Axl Rose and Queen
The Show Must Go On – Elton John, Tony Iommi and Queen
We Will Rock You – Axl Rose and Queen
We Are the Champions – Liza Minnelli and Ensemble

Bonus:
• Rehearsal Performances
– Under Pressure – David Bowie and Annie Lennox
– These Are the Days of Our Lives – George Michael and Lisa Stansfield
– Somebody to Love – George Michael
• 10th Anniversary Documentary
• Photo Galleries
• Mercury Phoenix Trust Facts

BDInfo
Disc Title: Freddie Mercury Tribute Concert
Disc Size: 48 526 123 048 bytes
Protection: AACS
BD-Java: No
BDInfo: 0.5.8

Notes:

BDINFO HOME:
Cinema Squid
http://www.cinemasquid.com/blu-ray/tools/bdinfo

INCLUDES FORUMS REPORT FOR:
AVS Forum Blu-ray Audio and Video Specifications Thread
http://www.avsforum.com/avs-vb/showthread.php?t=1155731

WARNING: Report is incomplete because: Scan has not been run.

********************
PLAYLIST: 00000.MPLS
********************

<–- BEGIN FORUMS PASTE –->

                                                                                                                  Total   Video                                               Title                                                           Codec   Length  Movie Size      Disc Size       Bitrate Bitrate Main Audio Track                          Secondary Audio Track  -----                                                           ------  ------- --------------  --------------  ------- ------- ------------------                        ---------------------  00000.MPLS                                                      AVC     3:10:00 0               48 526 123 048  0,00    0,00    LPCM 2.0 1536Kbps (48kHz/16-bit)          DTS-HD Hi-Res 5.1 2046Kbps (48kHz/24-bit)  

    DISC INFO:    Disc Title:     Freddie Mercury Tribute Concert  Disc Size:      48 526 123 048 bytes  Protection:     AACS  BD-Java:        No  BDInfo:         0.5.8    PLAYLIST REPORT:    Name:                   00000.MPLS  Length:                 3:10:00.388 (h:m:s.ms)  Size:                   0 bytes  Total Bitrate:          0,00 Mbps    VIDEO:    Codec                   Bitrate             Description       -----                   -------             -----------       MPEG-4 AVC Video        0 kbps              1080i / 29,970 fps / 16:9 / High Profile 4.1    AUDIO:    Codec                           Language        Bitrate         Description       -----                           --------        -------         -----------       LPCM Audio                      English         1536 kbps       2.0 / 48 kHz / 1536 kbps / 16-bit  DTS-HD High-Res Audio           English         2046 kbps       5.1 / 48 kHz / 2046 kbps / 24-bit (DTS Core: 5.1 / 48 kHz / 1509 kbps / 24-bit)    FILES:    Name            Time In         Length          Size            Total Bitrate     ----            -------         ------          ----            -------------     00000.M2TS      0:00:00.000     1:23:49.391     0               0                 00001.M2TS      1:23:49.391     1:46:09.996     0               0                 00020.M2TS      3:09:59.387     0:00:01.000     0               0                   CHAPTERS:    Number          Time In         Length          Avg Video Rate  Max 1-Sec Rate  Max 1-Sec Time  Max 5-Sec Rate  Max 5-Sec Time  Max 10Sec Rate  Max 10Sec Time  Avg Frame Size  Max Frame Size  Max Frame Time    ------          -------         ------          --------------  --------------  --------------  --------------  --------------  --------------  --------------  --------------  --------------  --------------    1               0:00:00.000     0:02:12.398     0 kbps          0 kbps          00:00:00.000    0 kbps          00:00:00.000    0 kbps          00:00:00.000    0 bytes         0 bytes         00:00:00.000      2               0:02:12.398     0:01:15.308     0 kbps          0 kbps          00:00:00.000    0 kbps          00:00:00.000    0 kbps          00:00:00.000    0 bytes         0 bytes         00:00:00.000      3               0:03:27.707     0:00:14.314     0 kbps          0 kbps          00:00:00.000    0 kbps          00:00:00.000    0 kbps          00:00:00.000    0 bytes         0 bytes         00:00:00.000      4               0:03:42.021     0:05:29.829     0 kbps          0 kbps          00:00:00.000    0 kbps          00:00:00.000    0 kbps          00:00:00.000    0 bytes         0 bytes         00:00:00.000      5               0:09:11.851     0:05:29.162     0 kbps          0 kbps          00:00:00.000    0 kbps          00:00:00.000    0 kbps          00:00:00.000    0 bytes         0 bytes         00:00:00.000      6               0:14:41.013     0:06:16.743     0 kbps          0 kbps          00:00:00.000    0 kbps          00:00:00.000    0 kbps          00:00:00.000    0 bytes         0 bytes         00:00:00.000      7               0:20:57.756     0:07:19.205     0 kbps          0 kbps          00:00:00.000    0 kbps          00:00:00.000    0 kbps          00:00:00.000    0 bytes         0 bytes         00:00:00.000      8               0:28:16.961     0:00:58.591     0 kbps          0 kbps          00:00:00.000    0 kbps          00:00:00.000    0 kbps          00:00:00.000    0 bytes         0 bytes         00:00:00.000      9               0:29:15.553     0:00:23.123     0 kbps          0 kbps          00:00:00.000    0 kbps          00:00:00.000    0 kbps          00:00:00.000    0 bytes         0 bytes         00:00:00.000      10              0:29:38.676     0:00:47.080     0 kbps          0 kbps          00:00:00.000    0 kbps          00:00:00.000    0 kbps          00:00:00.000    0 bytes         0 bytes         00:00:00.000      11              0:30:25.757     0:01:41.034     0 kbps          0 kbps          00:00:00.000    0 kbps          00:00:00.000    0 kbps          00:00:00.000    0 bytes         0 bytes         00:00:00.000      12              0:32:06.791     0:01:32.525     0 kbps          0 kbps          00:00:00.000    0 kbps          00:00:00.000    0 kbps          00:00:00.000    0 bytes         0 bytes         00:00:00.000      13              0:33:39.317     0:00:24.290     0 kbps          0 kbps          00:00:00.000    0 kbps          00:00:00.000    0 kbps          00:00:00.000    0 bytes         0 bytes         00:00:00.000      14              0:34:03.608     0:00:41.908     0 kbps          0 kbps          00:00:00.000    0 kbps          00:00:00.000    0 kbps          00:00:00.000    0 bytes         0 bytes         00:00:00.000      15              0:34:45.516     0:01:40.834     0 kbps          0 kbps          00:00:00.000    0 kbps          00:00:00.000    0 kbps          00:00:00.000    0 bytes         0 bytes         00:00:00.000      16              0:36:26.350     0:00:28.561     0 kbps          0 kbps          00:00:00.000    0 kbps          00:00:00.000    0 kbps          00:00:00.000    0 bytes         0 bytes         00:00:00.000      17              0:36:54.912     0:00:37.537     0 kbps          0 kbps          00:00:00.000    0 kbps          00:00:00.000    0 kbps          00:00:00.000    0 bytes         0 bytes         00:00:00.000      18              0:37:32.450     0:00:42.942     0 kbps          0 kbps          00:00:00.000    0 kbps          00:00:00.000    0 kbps          00:00:00.000    0 bytes         0 bytes         00:00:00.000      19              0:38:15.393     0:02:53.840     0 kbps          0 kbps          00:00:00.000    0 kbps          00:00:00.000    0 kbps          00:00:00.000    0 bytes         0 bytes         00:00:00.000      20              0:41:09.233     0:01:36.930     0 kbps          0 kbps          00:00:00.000    0 kbps          00:00:00.000    0 kbps          00:00:00.000    0 bytes         0 bytes         00:00:00.000      21              0:42:46.163     0:07:43.429     0 kbps          0 kbps          00:00:00.000    0 kbps          00:00:00.000    0 kbps          00:00:00.000    0 bytes         0 bytes         00:00:00.000      22              0:50:29.593     0:01:12.338     0 kbps          0 kbps          00:00:00.000    0 kbps          00:00:00.000    0 kbps          00:00:00.000    0 bytes         0 bytes         00:00:00.000      23              0:51:41.932     0:05:07.974     0 kbps          0 kbps          00:00:00.000    0 kbps          00:00:00.000    0 kbps          00:00:00.000    0 bytes         0 bytes         00:00:00.000      24              0:56:49.906     0:02:21.040     0 kbps          0 kbps          00:00:00.000    0 kbps          00:00:00.000    0 kbps          00:00:00.000    0 bytes         0 bytes         00:00:00.000      25              0:59:10.947     0:01:05.799     0 kbps          0 kbps          00:00:00.000    0 kbps          00:00:00.000    0 kbps          00:00:00.000    0 bytes         0 bytes         00:00:00.000      26              1:00:16.746     0:02:39.526     0 kbps          0 kbps          00:00:00.000    0 kbps          00:00:00.000    0 kbps          00:00:00.000    0 bytes         0 bytes         00:00:00.000      27              1:02:56.272     0:00:33.333     0 kbps          0 kbps          00:00:00.000    0 kbps          00:00:00.000    0 kbps          00:00:00.000    0 bytes         0 bytes         00:00:00.000      28              1:03:29.605     0:06:14.340     0 kbps          0 kbps          00:00:00.000    0 kbps          00:00:00.000    0 kbps          00:00:00.000    0 bytes         0 bytes         00:00:00.000      29              1:09:43.946     0:01:28.121     0 kbps          0 kbps          00:00:00.000    0 kbps          00:00:00.000    0 kbps          00:00:00.000    0 bytes         0 bytes         00:00:00.000      30              1:11:12.067     0:07:23.409     0 kbps          0 kbps          00:00:00.000    0 kbps          00:00:00.000    0 kbps          00:00:00.000    0 bytes         0 bytes         00:00:00.000      31              1:18:35.477     0:05:13.913     0 kbps          0 kbps          00:00:00.000    0 kbps          00:00:00.000    0 kbps          00:00:00.000    0 bytes         0 bytes         00:00:00.000      32              1:23:49.391     0:01:31.091     0 kbps          0 kbps          00:00:00.000    0 kbps          00:00:00.000    0 kbps          00:00:00.000    0 bytes         0 bytes         00:00:00.000      33              1:25:20.482     0:04:38.378     0 kbps          0 kbps          00:00:00.000    0 kbps          00:00:00.000    0 kbps          00:00:00.000    0 bytes         0 bytes         00:00:00.000      34              1:29:58.860     0:00:43.510     0 kbps          0 kbps          00:00:00.000    0 kbps          00:00:00.000    0 kbps          00:00:00.000    0 bytes         0 bytes         00:00:00.000      35              1:30:42.370     0:00:26.860     0 kbps          0 kbps          00:00:00.000    0 kbps          00:00:00.000    0 kbps          00:00:00.000    0 bytes         0 bytes         00:00:00.000      36              1:31:09.230     0:05:35.601     0 kbps          0 kbps          00:00:00.000    0 kbps          00:00:00.000    0 kbps          00:00:00.000    0 bytes         0 bytes         00:00:00.000      37              1:36:44.832     0:05:01.434     0 kbps          0 kbps          00:00:00.000    0 kbps          00:00:00.000    0 kbps          00:00:00.000    0 bytes         0 bytes         00:00:00.000      38              1:41:46.266     0:04:50.056     0 kbps          0 kbps          00:00:00.000    0 kbps          00:00:00.000    0 kbps          00:00:00.000    0 bytes         0 bytes         00:00:00.000      39              1:46:36.323     0:02:53.439     0 kbps          0 kbps          00:00:00.000    0 kbps          00:00:00.000    0 kbps          00:00:00.000    0 bytes         0 bytes         00:00:00.000      40              1:49:29.763     0:01:41.034     0 kbps          0 kbps          00:00:00.000    0 kbps          00:00:00.000    0 kbps          00:00:00.000    0 bytes         0 bytes         00:00:00.000      41              1:51:10.797     0:04:46.119     0 kbps          0 kbps          00:00:00.000    0 kbps          00:00:00.000    0 kbps          00:00:00.000    0 bytes         0 bytes         00:00:00.000      42              1:55:56.916     0:04:22.929     0 kbps          0 kbps          00:00:00.000    0 kbps          00:00:00.000    0 kbps          00:00:00.000    0 bytes         0 bytes         00:00:00.000      43              2:00:19.845     0:06:49.675     0 kbps          0 kbps          00:00:00.000    0 kbps          00:00:00.000    0 kbps          00:00:00.000    0 bytes         0 bytes         00:00:00.000      44              2:07:09.521     0:04:24.998     0 kbps          0 kbps          00:00:00.000    0 kbps          00:00:00.000    0 kbps          00:00:00.000    0 bytes         0 bytes         00:00:00.000      45              2:11:34.519     0:04:45.551     0 kbps          0 kbps          00:00:00.000    0 kbps          00:00:00.000    0 kbps          00:00:00.000    0 bytes         0 bytes         00:00:00.000      46              2:16:20.071     0:05:49.248     0 kbps          0 kbps          00:00:00.000    0 kbps          00:00:00.000    0 kbps          00:00:00.000    0 bytes         0 bytes         00:00:00.000      47              2:22:09.320     0:04:03.509     0 kbps          0 kbps          00:00:00.000    0 kbps          00:00:00.000    0 kbps          00:00:00.000    0 bytes         0 bytes         00:00:00.000      48              2:26:12.830     0:06:19.245     0 kbps          0 kbps          00:00:00.000    0 kbps          00:00:00.000    0 kbps          00:00:00.000    0 bytes         0 bytes         00:00:00.000      49              2:32:32.076     0:02:34.687     0 kbps          0 kbps          00:00:00.000    0 kbps          00:00:00.000    0 kbps          00:00:00.000    0 bytes         0 bytes         00:00:00.000      50              2:35:06.764     0:06:14.340     0 kbps          0 kbps          00:00:00.000    0 kbps          00:00:00.000    0 kbps          00:00:00.000    0 bytes         0 bytes         00:00:00.000      51              2:41:21.104     0:05:19.585     0 kbps          0 kbps          00:00:00.000    0 kbps          00:00:00.000    0 kbps          00:00:00.000    0 bytes         0 bytes         00:00:00.000      52              2:46:40.690     0:06:05.531     0 kbps          0 kbps          00:00:00.000    0 kbps          00:00:00.000    0 kbps          00:00:00.000    0 bytes         0 bytes         00:00:00.000      53              2:52:46.222     0:04:31.404     0 kbps          0 kbps          00:00:00.000    0 kbps          00:00:00.000    0 kbps          00:00:00.000    0 bytes         0 bytes         00:00:00.000      54              2:57:17.626     0:03:20.200     0 kbps          0 kbps          00:00:00.000    0 kbps          00:00:00.000    0 kbps          00:00:00.000    0 bytes         0 bytes         00:00:00.000      55              3:00:37.826     0:06:45.805     0 kbps          0 kbps          00:00:00.000    0 kbps          00:00:00.000    0 kbps          00:00:00.000    0 bytes         0 bytes         00:00:00.000      56              3:07:23.632     0:02:35.755     0 kbps          0 kbps          00:00:00.000    0 kbps          00:00:00.000    0 kbps          00:00:00.000    0 bytes         0 bytes         00:00:00.000      57              3:09:59.387     0:00:01.001     0 kbps          0 kbps          00:00:00.000    0 kbps          00:00:00.000    0 kbps          00:00:00.000    0 bytes         0 bytes         00:00:00.000        STREAM DIAGNOSTICS:    File            PID             Type            Codec           Language                Seconds                 Bitrate                 Bytes           Packets           ----            ---             ----            -----           --------                --------------          --------------          -------------   -----             00000.M2TS      4113 (0x1011)   0x1B            AVC                                     2,035                   0                       0               0                 00000.M2TS      4352 (0x1100)   0x80            LPCM            eng (English)           2,035                   0                       0               0                 00000.M2TS      4353 (0x1101)   0x85            DTS-HD HR       eng (English)           2,035                   0                       0               0                 00001.M2TS      4113 (0x1011)   0x1B            AVC                                     2,035                   0                       0               0                 00001.M2TS      4352 (0x1100)   0x80            LPCM            eng (English)           2,035                   0                       0               0                 00001.M2TS      4353 (0x1101)   0x85            DTS-HD HR       eng (English)           2,035                   0                       0               0                 00020.M2TS      4113 (0x1011)   0x1B            AVC                                     0                       0                       0               0                   

<–– END FORUMS PASTE ––>

QUICK SUMMARY:

Disc Title: Freddie Mercury Tribute Concert
Disc Size: 48 526 123 048 bytes
Protection: AACS
BD-Java: No
Playlist: 00000.MPLS
Size: 0 bytes
Length: 3:10:00.388
Total Bitrate: 0,00 Mbps
Video: MPEG-4 AVC Video / 0 kbps / 1080i / 29,970 fps / 16:9 / High Profile 4.1
Audio: English / LPCM Audio / 2.0 / 48 kHz / 1536 kbps / 16-bit
Audio: English / DTS-HD High-Res Audio / 5.1 / 48 kHz / 2046 kbps / 24-bit (DTS Core: 5.1 / 48 kHz / 1509 kbps / 24-bit)

********************
PLAYLIST: 00002.MPLS
********************

<–- BEGIN FORUMS PASTE –->

                                                                                                                  Total   Video                                               Title                                                           Codec   Length  Movie Size      Disc Size       Bitrate Bitrate Main Audio Track                          Secondary Audio Track  -----                                                           ------  ------- --------------  --------------  ------- ------- ------------------                        ---------------------  00002.MPLS                                                      AVC     1:46:09 0               48 526 123 048  0,00    0,00    LPCM 2.0 1536Kbps (48kHz/16-bit)          DTS-HD Hi-Res 5.1 2046Kbps (48kHz/24-bit)  

    DISC INFO:    Disc Title:     Freddie Mercury Tribute Concert  Disc Size:      48 526 123 048 bytes  Protection:     AACS  BD-Java:        No  BDInfo:         0.5.8    PLAYLIST REPORT:    Name:                   00002.MPLS  Length:                 1:46:09.996 (h:m:s.ms)  Size:                   0 bytes  Total Bitrate:          0,00 Mbps    VIDEO:    Codec                   Bitrate             Description       -----                   -------             -----------       MPEG-4 AVC Video        0 kbps              1080i / 29,970 fps / 16:9 / High Profile 4.1    AUDIO:    Codec                           Language        Bitrate         Description       -----                           --------        -------         -----------       LPCM Audio                      English         1536 kbps       2.0 / 48 kHz / 1536 kbps / 16-bit  DTS-HD High-Res Audio           English         2046 kbps       5.1 / 48 kHz / 2046 kbps / 24-bit (DTS Core: 5.1 / 48 kHz / 1509 kbps / 24-bit)    FILES:    Name            Time In         Length          Size            Total Bitrate     ----            -------         ------          ----            -------------     00001.M2TS      0:00:00.000     1:46:09.996     0               0                   CHAPTERS:    Number          Time In         Length          Avg Video Rate  Max 1-Sec Rate  Max 1-Sec Time  Max 5-Sec Rate  Max 5-Sec Time  Max 10Sec Rate  Max 10Sec Time  Avg Frame Size  Max Frame Size  Max Frame Time    ------          -------         ------          --------------  --------------  --------------  --------------  --------------  --------------  --------------  --------------  --------------  --------------    1               0:00:00.000     0:01:31.091     0 kbps          0 kbps          00:00:00.000    0 kbps          00:00:00.000    0 kbps          00:00:00.000    0 bytes         0 bytes         00:00:00.000      2               0:01:31.091     0:04:38.378     0 kbps          0 kbps          00:00:00.000    0 kbps          00:00:00.000    0 kbps          00:00:00.000    0 bytes         0 bytes         00:00:00.000      3               0:06:09.469     0:00:43.510     0 kbps          0 kbps          00:00:00.000    0 kbps          00:00:00.000    0 kbps          00:00:00.000    0 bytes         0 bytes         00:00:00.000      4               0:06:52.979     0:00:26.860     0 kbps          0 kbps          00:00:00.000    0 kbps          00:00:00.000    0 kbps          00:00:00.000    0 bytes         0 bytes         00:00:00.000      5               0:07:19.839     0:05:35.601     0 kbps          0 kbps          00:00:00.000    0 kbps          00:00:00.000    0 kbps          00:00:00.000    0 bytes         0 bytes         00:00:00.000      6               0:12:55.441     0:05:01.434     0 kbps          0 kbps          00:00:00.000    0 kbps          00:00:00.000    0 kbps          00:00:00.000    0 bytes         0 bytes         00:00:00.000      7               0:17:56.875     0:04:50.056     0 kbps          0 kbps          00:00:00.000    0 kbps          00:00:00.000    0 kbps          00:00:00.000    0 bytes         0 bytes         00:00:00.000      8               0:22:46.932     0:02:53.439     0 kbps          0 kbps          00:00:00.000    0 kbps          00:00:00.000    0 kbps          00:00:00.000    0 bytes         0 bytes         00:00:00.000      9               0:25:40.372     0:01:41.034     0 kbps          0 kbps          00:00:00.000    0 kbps          00:00:00.000    0 kbps          00:00:00.000    0 bytes         0 bytes         00:00:00.000      10              0:27:21.406     0:04:46.119     0 kbps          0 kbps          00:00:00.000    0 kbps          00:00:00.000    0 kbps          00:00:00.000    0 bytes         0 bytes         00:00:00.000      11              0:32:07.525     0:04:22.929     0 kbps          0 kbps          00:00:00.000    0 kbps          00:00:00.000    0 kbps          00:00:00.000    0 bytes         0 bytes         00:00:00.000      12              0:36:30.454     0:06:49.675     0 kbps          0 kbps          00:00:00.000    0 kbps          00:00:00.000    0 kbps          00:00:00.000    0 bytes         0 bytes         00:00:00.000      13              0:43:20.130     0:04:24.998     0 kbps          0 kbps          00:00:00.000    0 kbps          00:00:00.000    0 kbps          00:00:00.000    0 bytes         0 bytes         00:00:00.000      14              0:47:45.128     0:04:45.551     0 kbps          0 kbps          00:00:00.000    0 kbps          00:00:00.000    0 kbps          00:00:00.000    0 bytes         0 bytes         00:00:00.000      15              0:52:30.680     0:05:49.248     0 kbps          0 kbps          00:00:00.000    0 kbps          00:00:00.000    0 kbps          00:00:00.000    0 bytes         0 bytes         00:00:00.000      16              0:58:19.929     0:04:03.509     0 kbps          0 kbps          00:00:00.000    0 kbps          00:00:00.000    0 kbps          00:00:00.000    0 bytes         0 bytes         00:00:00.000      17              1:02:23.439     0:06:19.245     0 kbps          0 kbps          00:00:00.000    0 kbps          00:00:00.000    0 kbps          00:00:00.000    0 bytes         0 bytes         00:00:00.000      18              1:08:42.685     0:02:34.687     0 kbps          0 kbps          00:00:00.000    0 kbps          00:00:00.000    0 kbps          00:00:00.000    0 bytes         0 bytes         00:00:00.000      19              1:11:17.373     0:06:14.340     0 kbps          0 kbps          00:00:00.000    0 kbps          00:00:00.000    0 kbps          00:00:00.000    0 bytes         0 bytes         00:00:00.000      20              1:17:31.713     0:05:19.585     0 kbps          0 kbps          00:00:00.000    0 kbps          00:00:00.000    0 kbps          00:00:00.000    0 bytes         0 bytes         00:00:00.000      21              1:22:51.299     0:06:05.531     0 kbps          0 kbps          00:00:00.000    0 kbps          00:00:00.000    0 kbps          00:00:00.000    0 bytes         0 bytes         00:00:00.000      22              1:28:56.831     0:04:31.404     0 kbps          0 kbps          00:00:00.000    0 kbps          00:00:00.000    0 kbps          00:00:00.000    0 bytes         0 bytes         00:00:00.000      23              1:33:28.235     0:03:20.199     0 kbps          0 kbps          00:00:00.000    0 kbps          00:00:00.000    0 kbps          00:00:00.000    0 bytes         0 bytes         00:00:00.000      24              1:36:48.435     0:06:45.805     0 kbps          0 kbps          00:00:00.000    0 kbps          00:00:00.000    0 kbps          00:00:00.000    0 bytes         0 bytes         00:00:00.000      25              1:43:34.241     0:02:35.755     0 kbps          0 kbps          00:00:00.000    0 kbps          00:00:00.000    0 kbps          00:00:00.000    0 bytes         0 bytes         00:00:00.000        STREAM DIAGNOSTICS:    File            PID             Type            Codec           Language                Seconds                 Bitrate                 Bytes           Packets           ----            ---             ----            -----           --------                --------------          --------------          -------------   -----             00001.M2TS      4113 (0x1011)   0x1B            AVC                                     2,035                   0                       0               0                 00001.M2TS      4352 (0x1100)   0x80            LPCM            eng (English)           2,035                   0                       0               0                 00001.M2TS      4353 (0x1101)   0x85            DTS-HD HR       eng (English)           2,035                   0                       0               0                   

<–– END FORUMS PASTE ––>

QUICK SUMMARY:

Disc Title: Freddie Mercury Tribute Concert
Disc Size: 48 526 123 048 bytes
Protection: AACS
BD-Java: No
Playlist: 00002.MPLS
Size: 0 bytes
Length: 1:46:09.996
Total Bitrate: 0,00 Mbps
Video: MPEG-4 AVC Video / 0 kbps / 1080i / 29,970 fps / 16:9 / High Profile 4.1
Audio: English / LPCM Audio / 2.0 / 48 kHz / 1536 kbps / 16-bit
Audio: English / DTS-HD High-Res Audio / 5.1 / 48 kHz / 2046 kbps / 24-bit (DTS Core: 5.1 / 48 kHz / 1509 kbps / 24-bit)

********************
PLAYLIST: 00001.MPLS
********************

<–- BEGIN FORUMS PASTE –->

                                                                                                                  Total   Video                                               Title                                                           Codec   Length  Movie Size      Disc Size       Bitrate Bitrate Main Audio Track                          Secondary Audio Track  -----                                                           ------  ------- --------------  --------------  ------- ------- ------------------                        ---------------------  00001.MPLS                                                      AVC     1:25:06 0               48 526 123 048  0,00    0,00    LPCM 2.0 1536Kbps (48kHz/16-bit)          DTS-HD Hi-Res 5.1 2046Kbps (48kHz/24-bit)  

    DISC INFO:    Disc Title:     Freddie Mercury Tribute Concert  Disc Size:      48 526 123 048 bytes  Protection:     AACS  BD-Java:        No  BDInfo:         0.5.8    PLAYLIST REPORT:    Name:                   00001.MPLS  Length:                 1:25:06.801 (h:m:s.ms)  Size:                   0 bytes  Total Bitrate:          0,00 Mbps    VIDEO:    Codec                   Bitrate             Description       -----                   -------             -----------       MPEG-4 AVC Video        0 kbps              1080i / 29,970 fps / 16:9 / High Profile 4.1    AUDIO:    Codec                           Language        Bitrate         Description       -----                           --------        -------         -----------       LPCM Audio                      English         1536 kbps       2.0 / 48 kHz / 1536 kbps / 16-bit  DTS-HD High-Res Audio           English         2046 kbps       5.1 / 48 kHz / 2046 kbps / 24-bit (DTS Core: 5.1 / 48 kHz / 1509 kbps / 24-bit)    FILES:    Name            Time In         Length          Size            Total Bitrate     ----            -------         ------          ----            -------------     00000.M2TS      0:00:00.000     1:23:49.391     0               0                 00021.M2TS      1:23:49.391     0:01:16.409     0               0                 00020.M2TS      1:25:05.800     0:00:01.000     0               0                   CHAPTERS:    Number          Time In         Length          Avg Video Rate  Max 1-Sec Rate  Max 1-Sec Time  Max 5-Sec Rate  Max 5-Sec Time  Max 10Sec Rate  Max 10Sec Time  Avg Frame Size  Max Frame Size  Max Frame Time    ------          -------         ------          --------------  --------------  --------------  --------------  --------------  --------------  --------------  --------------  --------------  --------------    1               0:00:00.000     0:02:12.398     0 kbps          0 kbps          00:00:00.000    0 kbps          00:00:00.000    0 kbps          00:00:00.000    0 bytes         0 bytes         00:00:00.000      2               0:02:12.398     0:01:15.308     0 kbps          0 kbps          00:00:00.000    0 kbps          00:00:00.000    0 kbps          00:00:00.000    0 bytes         0 bytes         00:00:00.000      3               0:03:27.707     0:00:14.314     0 kbps          0 kbps          00:00:00.000    0 kbps          00:00:00.000    0 kbps          00:00:00.000    0 bytes         0 bytes         00:00:00.000      4               0:03:42.021     0:05:29.829     0 kbps          0 kbps          00:00:00.000    0 kbps          00:00:00.000    0 kbps          00:00:00.000    0 bytes         0 bytes         00:00:00.000      5               0:09:11.851     0:05:29.162     0 kbps          0 kbps          00:00:00.000    0 kbps          00:00:00.000    0 kbps          00:00:00.000    0 bytes         0 bytes         00:00:00.000      6               0:14:41.013     0:06:16.743     0 kbps          0 kbps          00:00:00.000    0 kbps          00:00:00.000    0 kbps          00:00:00.000    0 bytes         0 bytes         00:00:00.000      7               0:20:57.756     0:07:19.205     0 kbps          0 kbps          00:00:00.000    0 kbps          00:00:00.000    0 kbps          00:00:00.000    0 bytes         0 bytes         00:00:00.000      8               0:28:16.961     0:00:58.591     0 kbps          0 kbps          00:00:00.000    0 kbps          00:00:00.000    0 kbps          00:00:00.000    0 bytes         0 bytes         00:00:00.000      9               0:29:15.553     0:00:23.123     0 kbps          0 kbps          00:00:00.000    0 kbps          00:00:00.000    0 kbps          00:00:00.000    0 bytes         0 bytes         00:00:00.000      10              0:29:38.676     0:00:47.080     0 kbps          0 kbps          00:00:00.000    0 kbps          00:00:00.000    0 kbps          00:00:00.000    0 bytes         0 bytes         00:00:00.000      11              0:30:25.757     0:01:41.034     0 kbps          0 kbps          00:00:00.000    0 kbps          00:00:00.000    0 kbps          00:00:00.000    0 bytes         0 bytes         00:00:00.000      12              0:32:06.791     0:01:32.525     0 kbps          0 kbps          00:00:00.000    0 kbps          00:00:00.000    0 kbps          00:00:00.000    0 bytes         0 bytes         00:00:00.000      13              0:33:39.317     0:00:24.290     0 kbps          0 kbps          00:00:00.000    0 kbps          00:00:00.000    0 kbps          00:00:00.000    0 bytes         0 bytes         00:00:00.000      14              0:34:03.608     0:00:41.908     0 kbps          0 kbps          00:00:00.000    0 kbps          00:00:00.000    0 kbps          00:00:00.000    0 bytes         0 bytes         00:00:00.000      15              0:34:45.516     0:01:40.834     0 kbps          0 kbps          00:00:00.000    0 kbps          00:00:00.000    0 kbps          00:00:00.000    0 bytes         0 bytes         00:00:00.000      16              0:36:26.350     0:00:28.561     0 kbps          0 kbps          00:00:00.000    0 kbps          00:00:00.000    0 kbps          00:00:00.000    0 bytes         0 bytes         00:00:00.000      17              0:36:54.912     0:00:37.537     0 kbps          0 kbps          00:00:00.000    0 kbps          00:00:00.000    0 kbps          00:00:00.000    0 bytes         0 bytes         00:00:00.000      18              0:37:32.450     0:00:42.942     0 kbps          0 kbps          00:00:00.000    0 kbps          00:00:00.000    0 kbps          00:00:00.000    0 bytes         0 bytes         00:00:00.000      19              0:38:15.393     0:02:53.840     0 kbps          0 kbps          00:00:00.000    0 kbps          00:00:00.000    0 kbps          00:00:00.000    0 bytes         0 bytes         00:00:00.000      20              0:41:09.233     0:01:36.930     0 kbps          0 kbps          00:00:00.000    0 kbps          00:00:00.000    0 kbps          00:00:00.000    0 bytes         0 bytes         00:00:00.000      21              0:42:46.163     0:07:43.429     0 kbps          0 kbps          00:00:00.000    0 kbps          00:00:00.000    0 kbps          00:00:00.000    0 bytes         0 bytes         00:00:00.000      22              0:50:29.593     0:01:12.338     0 kbps          0 kbps          00:00:00.000    0 kbps          00:00:00.000    0 kbps          00:00:00.000    0 bytes         0 bytes         00:00:00.000      23              0:51:41.932     0:05:07.974     0 kbps          0 kbps          00:00:00.000    0 kbps          00:00:00.000    0 kbps          00:00:00.000    0 bytes         0 bytes         00:00:00.000      24              0:56:49.906     0:02:21.040     0 kbps          0 kbps          00:00:00.000    0 kbps          00:00:00.000    0 kbps          00:00:00.000    0 bytes         0 bytes         00:00:00.000      25              0:59:10.947     0:01:05.799     0 kbps          0 kbps          00:00:00.000    0 kbps          00:00:00.000    0 kbps          00:00:00.000    0 bytes         0 bytes         00:00:00.000      26              1:00:16.746     0:02:39.526     0 kbps          0 kbps          00:00:00.000    0 kbps          00:00:00.000    0 kbps          00:00:00.000    0 bytes         0 bytes         00:00:00.000      27              1:02:56.272     0:00:33.333     0 kbps          0 kbps          00:00:00.000    0 kbps          00:00:00.000    0 kbps          00:00:00.000    0 bytes         0 bytes         00:00:00.000      28              1:03:29.605     0:06:14.340     0 kbps          0 kbps          00:00:00.000    0 kbps          00:00:00.000    0 kbps          00:00:00.000    0 bytes         0 bytes         00:00:00.000      29              1:09:43.946     0:01:28.121     0 kbps          0 kbps          00:00:00.000    0 kbps          00:00:00.000    0 kbps          00:00:00.000    0 bytes         0 bytes         00:00:00.000      30              1:11:12.067     0:07:23.409     0 kbps          0 kbps          00:00:00.000    0 kbps          00:00:00.000    0 kbps          00:00:00.000    0 bytes         0 bytes         00:00:00.000      31              1:18:35.477     0:06:31.324     0 kbps          0 kbps          00:00:00.000    0 kbps          00:00:00.000    0 kbps          00:00:00.000    0 bytes         0 bytes         00:00:00.000        STREAM DIAGNOSTICS:    File            PID             Type            Codec           Language                Seconds                 Bitrate                 Bytes           Packets           ----            ---             ----            -----           --------                --------------          --------------          -------------   -----             00000.M2TS      4113 (0x1011)   0x1B            AVC                                     2,035                   0                       0               0                 00000.M2TS      4352 (0x1100)   0x80            LPCM            eng (English)           2,035                   0                       0               0                 00000.M2TS      4353 (0x1101)   0x85            DTS-HD HR       eng (English)           2,035                   0                       0               0                 00021.M2TS      4113 (0x1011)   0x1B            AVC                                     0                       0                       0               0                 00021.M2TS      4352 (0x1100)   0x80            LPCM            eng (English)           0                       0                       0               0                 00021.M2TS      4353 (0x1101)   0x85            DTS-HD HR       eng (English)           0                       0                       0               0                 00020.M2TS      4113 (0x1011)   0x1B            AVC                                     0                       0                       0               0                   

<–– END FORUMS PASTE ––>

QUICK SUMMARY:

Disc Title: Freddie Mercury Tribute Concert
Disc Size: 48 526 123 048 bytes
Protection: AACS
BD-Java: No
Playlist: 00001.MPLS
Size: 0 bytes
Length: 1:25:06.801
Total Bitrate: 0,00 Mbps
Video: MPEG-4 AVC Video / 0 kbps / 1080i / 29,970 fps / 16:9 / High Profile 4.1
Audio: English / LPCM Audio / 2.0 / 48 kHz / 1536 kbps / 16-bit
Audio: English / DTS-HD High-Res Audio / 5.1 / 48 kHz / 2046 kbps / 24-bit (DTS Core: 5.1 / 48 kHz / 1509 kbps / 24-bit)

********************
PLAYLIST: 00007.MPLS
********************

<–- BEGIN FORUMS PASTE –->

                                                                                                                  Total   Video                                               Title                                                           Codec   Length  Movie Size      Disc Size       Bitrate Bitrate Main Audio Track                          Secondary Audio Track  -----                                                           ------  ------- --------------  --------------  ------- ------- ------------------                        ---------------------  00007.MPLS                                                      AVC     0:04:54 0               48 526 123 048  0,00    0,00    LPCM 2.0 1536Kbps (48kHz/16-bit)            

    DISC INFO:    Disc Title:     Freddie Mercury Tribute Concert  Disc Size:      48 526 123 048 bytes  Protection:     AACS  BD-Java:        No  BDInfo:         0.5.8    PLAYLIST REPORT:    Name:                   00007.MPLS  Length:                 0:04:54.994 (h:m:s.ms)  Size:                   0 bytes  Total Bitrate:          0,00 Mbps    VIDEO:    Codec                   Bitrate             Description       -----                   -------             -----------       MPEG-4 AVC Video        0 kbps              1080i / 29,970 fps / 16:9 / High Profile 4.1    AUDIO:    Codec                           Language        Bitrate         Description       -----                           --------        -------         -----------       LPCM Audio                      English         1536 kbps       2.0 / 48 kHz / 1536 kbps / 16-bit    FILES:    Name            Time In         Length          Size            Total Bitrate     ----            -------         ------          ----            -------------     00008.M2TS      0:00:00.000     0:04:53.993     0               0                 00020.M2TS      0:04:53.993     0:00:01.000     0               0                   CHAPTERS:    Number          Time In         Length          Avg Video Rate  Max 1-Sec Rate  Max 1-Sec Time  Max 5-Sec Rate  Max 5-Sec Time  Max 10Sec Rate  Max 10Sec Time  Avg Frame Size  Max Frame Size  Max Frame Time    ------          -------         ------          --------------  --------------  --------------  --------------  --------------  --------------  --------------  --------------  --------------  --------------    1               0:00:00.000     0:04:53.993     0 kbps          0 kbps          00:00:00.000    0 kbps          00:00:00.000    0 kbps          00:00:00.000    0 bytes         0 bytes         00:00:00.000      2               0:04:53.993     0:00:01.000     0 kbps          0 kbps          00:00:00.000    0 kbps          00:00:00.000    0 kbps          00:00:00.000    0 bytes         0 bytes         00:00:00.000        STREAM DIAGNOSTICS:    File            PID             Type            Codec           Language                Seconds                 Bitrate                 Bytes           Packets           ----            ---             ----            -----           --------                --------------          --------------          -------------   -----             00008.M2TS      4113 (0x1011)   0x1B            AVC                                     0                       0                       0               0                 00008.M2TS      4352 (0x1100)   0x80            LPCM            eng (English)           0                       0                       0               0                 00020.M2TS      4113 (0x1011)   0x1B            AVC                                     0                       0                       0               0                   

<–– END FORUMS PASTE ––>

QUICK SUMMARY:

Disc Title: Freddie Mercury Tribute Concert
Disc Size: 48 526 123 048 bytes
Protection: AACS
BD-Java: No
Playlist: 00007.MPLS
Size: 0 bytes
Length: 0:04:54.994
Total Bitrate: 0,00 Mbps
Video: MPEG-4 AVC Video / 0 kbps / 1080i / 29,970 fps / 16:9 / High Profile 4.1
Audio: English / LPCM Audio / 2.0 / 48 kHz / 1536 kbps / 16-bit

********************
PLAYLIST: 00012.MPLS
********************

<–- BEGIN FORUMS PASTE –->

                                                                                                                  Total   Video                                               Title                                                           Codec   Length  Movie Size      Disc Size       Bitrate Bitrate Main Audio Track                          Secondary Audio Track  -----                                                           ------  ------- --------------  --------------  ------- ------- ------------------                        ---------------------  00012.MPLS                                                      AVC     0:04:18 0               48 526 123 048  0,00    0,00    LPCM 2.0 1536Kbps (48kHz/16-bit)            

    DISC INFO:    Disc Title:     Freddie Mercury Tribute Concert  Disc Size:      48 526 123 048 bytes  Protection:     AACS  BD-Java:        No  BDInfo:         0.5.8    PLAYLIST REPORT:    Name:                   00012.MPLS  Length:                 0:04:18.891 (h:m:s.ms)  Size:                   0 bytes  Total Bitrate:          0,00 Mbps    VIDEO:    Codec                   Bitrate             Description       -----                   -------             -----------       MPEG-4 AVC Video        0 kbps              1080i / 29,970 fps / 16:9 / High Profile 4.1    AUDIO:    Codec                           Language        Bitrate         Description       -----                           --------        -------         -----------       LPCM Audio                      English         1536 kbps       2.0 / 48 kHz / 1536 kbps / 16-bit    FILES:    Name            Time In         Length          Size            Total Bitrate     ----            -------         ------          ----            -------------     00014.M2TS      0:00:00.000     0:04:17.890     0               0                 00020.M2TS      0:04:17.890     0:00:01.000     0               0                   CHAPTERS:    Number          Time In         Length          Avg Video Rate  Max 1-Sec Rate  Max 1-Sec Time  Max 5-Sec Rate  Max 5-Sec Time  Max 10Sec Rate  Max 10Sec Time  Avg Frame Size  Max Frame Size  Max Frame Time    ------          -------         ------          --------------  --------------  --------------  --------------  --------------  --------------  --------------  --------------  --------------  --------------    1               0:00:00.000     0:04:17.890     0 kbps          0 kbps          00:00:00.000    0 kbps          00:00:00.000    0 kbps          00:00:00.000    0 bytes         0 bytes         00:00:00.000      2               0:04:17.890     0:00:01.000     0 kbps          0 kbps          00:00:00.000    0 kbps          00:00:00.000    0 kbps          00:00:00.000    0 bytes         0 bytes         00:00:00.000        STREAM DIAGNOSTICS:    File            PID             Type            Codec           Language                Seconds                 Bitrate                 Bytes           Packets           ----            ---             ----            -----           --------                --------------          --------------          -------------   -----             00014.M2TS      4113 (0x1011)   0x1B            AVC                                     1,001                   0                       0               0                 00014.M2TS      4352 (0x1100)   0x80            LPCM            eng (English)           1,001                   0                       0               0                 00020.M2TS      4113 (0x1011)   0x1B            AVC                                     0                       0                       0               0                   

<–– END FORUMS PASTE ––>

QUICK SUMMARY:

Disc Title: Freddie Mercury Tribute Concert
Disc Size: 48 526 123 048 bytes
Protection: AACS
BD-Java: No
Playlist: 00012.MPLS
Size: 0 bytes
Length: 0:04:18.891
Total Bitrate: 0,00 Mbps
Video: MPEG-4 AVC Video / 0 kbps / 1080i / 29,970 fps / 16:9 / High Profile 4.1
Audio: English / LPCM Audio / 2.0 / 48 kHz / 1536 kbps / 16-bit

********************
PLAYLIST: 00005.MPLS
********************

<–- BEGIN FORUMS PASTE –->

                                                                                                                  Total   Video                                               Title                                                           Codec   Length  Movie Size      Disc Size       Bitrate Bitrate Main Audio Track                          Secondary Audio Track  -----                                                           ------  ------- --------------  --------------  ------- ------- ------------------                        ---------------------  00005.MPLS                                                      AVC     0:03:59 0               48 526 123 048  0,00    0,00    LPCM 2.0 1536Kbps (48kHz/16-bit)            

    DISC INFO:    Disc Title:     Freddie Mercury Tribute Concert  Disc Size:      48 526 123 048 bytes  Protection:     AACS  BD-Java:        No  BDInfo:         0.5.8    PLAYLIST REPORT:    Name:                   00005.MPLS  Length:                 0:03:59.038 (h:m:s.ms)  Size:                   0 bytes  Total Bitrate:          0,00 Mbps    VIDEO:    Codec                   Bitrate             Description       -----                   -------             -----------       MPEG-4 AVC Video        0 kbps              1080i / 29,970 fps / 16:9 / High Profile 4.1    AUDIO:    Codec                           Language        Bitrate         Description       -----                           --------        -------         -----------       LPCM Audio                      English         1536 kbps       2.0 / 48 kHz / 1536 kbps / 16-bit    FILES:    Name            Time In         Length          Size            Total Bitrate     ----            -------         ------          ----            -------------     00004.M2TS      0:00:00.000     0:03:58.037     0               0                 00020.M2TS      0:03:58.037     0:00:01.000     0               0                   CHAPTERS:    Number          Time In         Length          Avg Video Rate  Max 1-Sec Rate  Max 1-Sec Time  Max 5-Sec Rate  Max 5-Sec Time  Max 10Sec Rate  Max 10Sec Time  Avg Frame Size  Max Frame Size  Max Frame Time    ------          -------         ------          --------------  --------------  --------------  --------------  --------------  --------------  --------------  --------------  --------------  --------------    1               0:00:00.000     0:03:58.037     0 kbps          0 kbps          00:00:00.000    0 kbps          00:00:00.000    0 kbps          00:00:00.000    0 bytes         0 bytes         00:00:00.000      2               0:03:58.037     0:00:01.000     0 kbps          0 kbps          00:00:00.000    0 kbps          00:00:00.000    0 kbps          00:00:00.000    0 bytes         0 bytes         00:00:00.000        STREAM DIAGNOSTICS:    File            PID             Type            Codec           Language                Seconds                 Bitrate                 Bytes           Packets           ----            ---             ----            -----           --------                --------------          --------------          -------------   -----             00004.M2TS      4113 (0x1011)   0x1B            AVC                                     0                       0                       0               0                 00004.M2TS      4352 (0x1100)   0x80            LPCM            eng (English)           0                       0                       0               0                 00020.M2TS      4113 (0x1011)   0x1B            AVC                                     0                       0                       0               0                   

<–– END FORUMS PASTE ––>

QUICK SUMMARY:

Disc Title: Freddie Mercury Tribute Concert
Disc Size: 48 526 123 048 bytes
Protection: AACS
BD-Java: No
Playlist: 00005.MPLS
Size: 0 bytes
Length: 0:03:59.038
Total Bitrate: 0,00 Mbps
Video: MPEG-4 AVC Video / 0 kbps / 1080i / 29,970 fps / 16:9 / High Profile 4.1
Audio: English / LPCM Audio / 2.0 / 48 kHz / 1536 kbps / 16-bit

********************
PLAYLIST: 00006.MPLS
********************

<–- BEGIN FORUMS PASTE –->

                                                                                                                  Total   Video                                               Title                                                           Codec   Length  Movie Size      Disc Size       Bitrate Bitrate Main Audio Track                          Secondary Audio Track  -----                                                           ------  ------- --------------  --------------  ------- ------- ------------------                        ---------------------  00006.MPLS                                                      AVC     0:03:26 0               48 526 123 048  0,00    0,00    LPCM 2.0 1536Kbps (48kHz/16-bit)            

    DISC INFO:    Disc Title:     Freddie Mercury Tribute Concert  Disc Size:      48 526 123 048 bytes  Protection:     AACS  BD-Java:        No  BDInfo:         0.5.8    PLAYLIST REPORT:    Name:                   00006.MPLS  Length:                 0:03:26.973 (h:m:s.ms)  Size:                   0 bytes  Total Bitrate:          0,00 Mbps    VIDEO:    Codec                   Bitrate             Description       -----                   -------             -----------       MPEG-4 AVC Video        0 kbps              1080i / 29,970 fps / 16:9 / High Profile 4.1    AUDIO:    Codec                           Language        Bitrate         Description       -----                           --------        -------         -----------       LPCM Audio                      English         1536 kbps       2.0 / 48 kHz / 1536 kbps / 16-bit    FILES:    Name            Time In         Length          Size            Total Bitrate     ----            -------         ------          ----            -------------     00006.M2TS      0:00:00.000     0:03:25.972     0               0                 00020.M2TS      0:03:25.972     0:00:01.000     0               0                   CHAPTERS:    Number          Time In         Length          Avg Video Rate  Max 1-Sec Rate  Max 1-Sec Time  Max 5-Sec Rate  Max 5-Sec Time  Max 10Sec Rate  Max 10Sec Time  Avg Frame Size  Max Frame Size  Max Frame Time    ------          -------         ------          --------------  --------------  --------------  --------------  --------------  --------------  --------------  --------------  --------------  --------------    1               0:00:00.000     0:03:25.972     0 kbps          0 kbps          00:00:00.000    0 kbps          00:00:00.000    0 kbps          00:00:00.000    0 bytes         0 bytes         00:00:00.000      2               0:03:25.972     0:00:01.000     0 kbps          0 kbps          00:00:00.000    0 kbps          00:00:00.000    0 kbps          00:00:00.000    0 bytes         0 bytes         00:00:00.000        STREAM DIAGNOSTICS:    File            PID             Type            Codec           Language                Seconds                 Bitrate                 Bytes           Packets           ----            ---             ----            -----           --------                --------------          --------------          -------------   -----             00006.M2TS      4113 (0x1011)   0x1B            AVC                                     0                       0                       0               0                 00006.M2TS      4352 (0x1100)   0x80            LPCM            eng (English)           0                       0                       0               0                 00020.M2TS      4113 (0x1011)   0x1B            AVC                                     0                       0                       0               0                   

<–– END FORUMS PASTE ––>

QUICK SUMMARY:

Disc Title: Freddie Mercury Tribute Concert
Disc Size: 48 526 123 048 bytes
Protection: AACS
BD-Java: No
Playlist: 00006.MPLS
Size: 0 bytes
Length: 0:03:26.973
Total Bitrate: 0,00 Mbps
Video: MPEG-4 AVC Video / 0 kbps / 1080i / 29,970 fps / 16:9 / High Profile 4.1
Audio: English / LPCM Audio / 2.0 / 48 kHz / 1536 kbps / 16-bit

********************
PLAYLIST: 00003.MPLS
********************

<–- BEGIN FORUMS PASTE –->

                                                                                                                  Total   Video                                               Title                                                           Codec   Length  Movie Size      Disc Size       Bitrate Bitrate Main Audio Track                          Secondary Audio Track  -----                                                           ------  ------- --------------  --------------  ------- ------- ------------------                        ---------------------  00003.MPLS                                                      AVC     0:56:44 0               48 526 123 048  0,00    0,00    LPCM 2.0 1536Kbps (48kHz/16-bit)            

    DISC INFO:    Disc Title:     Freddie Mercury Tribute Concert  Disc Size:      48 526 123 048 bytes  Protection:     AACS  BD-Java:        No  BDInfo:         0.5.8    PLAYLIST REPORT:    Name:                   00003.MPLS  Length:                 0:56:44.667 (h:m:s.ms)  Size:                   0 bytes  Total Bitrate:          0,00 Mbps    VIDEO:    Codec                   Bitrate             Description       -----                   -------             -----------       MPEG-4 AVC Video        0 kbps              1080i / 29,970 fps / 16:9 / High Profile 4.1    AUDIO:    Codec                           Language        Bitrate         Description       -----                           --------        -------         -----------       LPCM Audio                      English         1536 kbps       2.0 / 48 kHz / 1536 kbps / 16-bit    SUBTITLES:    Codec                           Language        Bitrate         Description       -----                           --------        -------         -----------       Presentation Graphics           English         0,000 kbps                        Presentation Graphics           German          0,000 kbps                        Presentation Graphics           Spanish         0,000 kbps                        Presentation Graphics           French          0,000 kbps                        Presentation Graphics           Italian         0,000 kbps                          FILES:    Name            Time In         Length          Size            Total Bitrate     ----            -------         ------          ----            -------------     00013.M2TS      0:00:00.000     0:00:16.649     0               0                 00002.M2TS      0:00:16.649     0:56:28.017     0               0                   CHAPTERS:    Number          Time In         Length          Avg Video Rate  Max 1-Sec Rate  Max 1-Sec Time  Max 5-Sec Rate  Max 5-Sec Time  Max 10Sec Rate  Max 10Sec Time  Avg Frame Size  Max Frame Size  Max Frame Time    ------          -------         ------          --------------  --------------  --------------  --------------  --------------  --------------  --------------  --------------  --------------  --------------    1               0:00:00.000     0:00:16.649     0 kbps          0 kbps          00:00:00.000    0 kbps          00:00:00.000    0 kbps          00:00:00.000    0 bytes         0 bytes         00:00:00.000      2               0:00:16.649     0:00:35.869     0 kbps          0 kbps          00:00:00.000    0 kbps          00:00:00.000    0 kbps          00:00:00.000    0 bytes         0 bytes         00:00:00.000      3               0:00:52.519     0:07:19.338     0 kbps          0 kbps          00:00:00.000    0 kbps          00:00:00.000    0 kbps          00:00:00.000    0 bytes         0 bytes         00:00:00.000      4               0:08:11.858     0:10:19.352     0 kbps          0 kbps          00:00:00.000    0 kbps          00:00:00.000    0 kbps          00:00:00.000    0 bytes         0 bytes         00:00:00.000      5               0:18:31.210     0:05:27.327     0 kbps          0 kbps          00:00:00.000    0 kbps          00:00:00.000    0 kbps          00:00:00.000    0 bytes         0 bytes         00:00:00.000      6               0:23:58.537     0:10:14.180     0 kbps          0 kbps          00:00:00.000    0 kbps          00:00:00.000    0 kbps          00:00:00.000    0 bytes         0 bytes         00:00:00.000      7               0:34:12.717     0:06:18.811     0 kbps          0 kbps          00:00:00.000    0 kbps          00:00:00.000    0 kbps          00:00:00.000    0 bytes         0 bytes         00:00:00.000      8               0:40:31.529     0:07:49.869     0 kbps          0 kbps          00:00:00.000    0 kbps          00:00:00.000    0 kbps          00:00:00.000    0 bytes         0 bytes         00:00:00.000      9               0:48:21.398     0:08:23.269     0 kbps          0 kbps          00:00:00.000    0 kbps          00:00:00.000    0 kbps          00:00:00.000    0 bytes         0 bytes         00:00:00.000        STREAM DIAGNOSTICS:    File            PID             Type            Codec           Language                Seconds                 Bitrate                 Bytes           Packets           ----            ---             ----            -----           --------                --------------          --------------          -------------   -----             00013.M2TS      4113 (0x1011)   0x1B            AVC                                     0                       0                       0               0                 00013.M2TS      4608 (0x1200)   0x90            PGS             eng (English)           0                       0                       0               0                 00013.M2TS      4609 (0x1201)   0x90            PGS             deu (German)            0                       0                       0               0                 00013.M2TS      4610 (0x1202)   0x90            PGS             spa (Spanish)           0                       0                       0               0                 00013.M2TS      4611 (0x1203)   0x90            PGS             fra (French)            0                       0                       0   			  		   	  		      		 	    	 			   		   	  		 	 	  		  	   	 			   		   	  		 		   			     	 			   		   	  		   				             0                 00013.M2TS      4612 (0x1204)   0x90            PGS             ita (Italian)           0                       0                       0               0                 00002.M2TS      4113 (0x1011)   0x1B            AVC                                     0                       0                       0               0                 00002.M2TS      4352 (0x1100)   0x80            LPCM            eng (English)           0                       0                       0               0                 00002.M2TS      4608 (0x1200)   0x90            PGS             eng (English)           0                       0                       0               0                 00002.M2TS      4609 (0x1201)   0x90            PGS             deu (German)            0                       0                       0               0                 00002.M2TS      4610 (0x1202)   0x90            PGS             spa (Spanish)           0                       0                       0               0                 00002.M2TS      4611 (0x1203)   0x90            PGS             fra (French)            0                       0                       0               0                 00002.M2TS      4612 (0x1204)   0x90            PGS             ita (Italian)           0                       0                       0               0                   

<–– END FORUMS PASTE ––>

QUICK SUMMARY:

Disc Title: Freddie Mercury Tribute Concert
Disc Size: 48 526 123 048 bytes
Protection: AACS
BD-Java: No
Playlist: 00003.MPLS
Size: 0 bytes
Length: 0:56:44.667
Total Bitrate: 0,00 Mbps
Video: MPEG-4 AVC Video / 0 kbps / 1080i / 29,970 fps / 16:9 / High Profile 4.1
Audio: English / LPCM Audio / 2.0 / 48 kHz / 1536 kbps / 16-bit
Subtitle: English / 0,000 kbps
Subtitle: German / 0,000 kbps
Subtitle: Spanish / 0,000 kbps
Subtitle: French / 0,000 kbps
Subtitle: Italian / 0,000 kbps

********************
PLAYLIST: 00004.MPLS
********************

<–- BEGIN FORUMS PASTE –->

                                                                                                                  Total   Video                                               Title                                                           Codec   Length  Movie Size      Disc Size       Bitrate Bitrate Main Audio Track                          Secondary Audio Track  -----                                                           ------  ------- --------------  --------------  ------- ------- ------------------                        ---------------------  00004.MPLS                                                      AVC     0:12:31 0               48 526 123 048  0,00    0,00    LPCM 2.0 1536Kbps (48kHz/16-bit)            

    DISC INFO:    Disc Title:     Freddie Mercury Tribute Concert  Disc Size:      48 526 123 048 bytes  Protection:     AACS  BD-Java:        No  BDInfo:         0.5.8    PLAYLIST REPORT:    Name:                   00004.MPLS  Length:                 0:12:31.217 (h:m:s.ms)  Size:                   0 bytes  Total Bitrate:          0,00 Mbps    VIDEO:    Codec                   Bitrate             Description       -----                   -------             -----------       MPEG-4 AVC Video        0 kbps              1080i / 29,970 fps / 16:9 / High Profile 4.1    AUDIO:    Codec                           Language        Bitrate         Description       -----                           --------        -------         -----------       LPCM Audio                      English         1536 kbps       2.0 / 48 kHz / 1536 kbps / 16-bit    FILES:    Name            Time In         Length          Size            Total Bitrate     ----            -------         ------          ----            -------------     00003.M2TS      0:00:00.000     0:00:05.071     0               0                 00004.M2TS      0:00:05.071     0:03:58.037     0               0                 00005.M2TS      0:04:03.109     0:00:04.070     0               0                 00006.M2TS      0:04:07.180     0:03:25.972     0               0                 00007.M2TS      0:07:33.152     0:00:04.070     0               0                 00008.M2TS      0:07:37.223     0:04:53.993     0               0                   CHAPTERS:    Number          Time In         Length          Avg Video Rate  Max 1-Sec Rate  Max 1-Sec Time  Max 5-Sec Rate  Max 5-Sec Time  Max 10Sec Rate  Max 10Sec Time  Avg Frame Size  Max Frame Size  Max Frame Time    ------          -------         ------          --------------  --------------  --------------  --------------  --------------  --------------  --------------  --------------  --------------  --------------    1               0:00:00.000     0:04:03.109     0 kbps          0 kbps          00:00:00.000    0 kbps          00:00:00.000    0 kbps          00:00:00.000    0 bytes         0 bytes         00:00:00.000      2               0:04:03.109     0:03:30.043     0 kbps          0 kbps          00:00:00.000    0 kbps          00:00:00.000    0 kbps          00:00:00.000    0 bytes         0 bytes         00:00:00.000      3               0:07:33.152     0:04:58.064     0 kbps          0 kbps          00:00:00.000    0 kbps          00:00:00.000    0 kbps          00:00:00.000    0 bytes         0 bytes         00:00:00.000        STREAM DIAGNOSTICS:    File            PID             Type            Codec           Language                Seconds                 Bitrate                 Bytes           Packets           ----            ---             ----            -----           --------                --------------          --------------          -------------   -----             00003.M2TS      4113 (0x1011)   0x1B            AVC                                     0                       0                       0               0                 00004.M2TS      4113 (0x1011)   0x1B            AVC                                     0                       0                       0               0                 00004.M2TS      4352 (0x1100)   0x80            LPCM            eng (English)           0                       0                       0               0                 00005.M2TS      4113 (0x1011)   0x1B            AVC                                     0                       0                       0               0                 00006.M2TS      4113 (0x1011)   0x1B            AVC                                     0                       0                       0               0                 00006.M2TS      4352 (0x1100)   0x80            LPCM            eng (English)           0                       0                       0               0                 00007.M2TS      4113 (0x1011)   0x1B            AVC                                     0                       0                       0               0                 00008.M2TS      4113 (0x1011)   0x1B            AVC                                     0                       0                       0               0                 00008.M2TS      4352 (0x1100)   0x80            LPCM            eng (English)           0                       0                       0               0                   

<–– END FORUMS PASTE ––>

QUICK SUMMARY:

Disc Title: Freddie Mercury Tribute Concert
Disc Size: 48 526 123 048 bytes
Protection: AACS
BD-Java: No
Playlist: 00004.MPLS
Size: 0 bytes
Length: 0:12:31.217
Total Bitrate: 0,00 Mbps
Video: MPEG-4 AVC Video / 0 kbps / 1080i / 29,970 fps / 16:9 / High Profile 4.1
Audio: English / LPCM Audio / 2.0 / 48 kHz / 1536 kbps / 16-bit

********************
PLAYLIST: 00009.MPLS
********************

<–- BEGIN FORUMS PASTE –->

                                                                                                                  Total   Video                                               Title                                                           Codec   Length  Movie Size      Disc Size       Bitrate Bitrate Main Audio Track                          Secondary Audio Track  -----                                                           ------  ------- --------------  --------------  ------- ------- ------------------                        ---------------------  00009.MPLS                                                      AVC     0:06:24 0               48 526 123 048  0,00    0,00    LPCM 2.0 1536Kbps (48kHz/16-bit)            

    DISC INFO:    Disc Title:     Freddie Mercury Tribute Concert  Disc Size:      48 526 123 048 bytes  Protection:     AACS  BD-Java:        No  BDInfo:         0.5.8    PLAYLIST REPORT:    Name:                   00009.MPLS  Length:                 0:06:24.417 (h:m:s.ms)  Size:                   0 bytes  Total Bitrate:          0,00 Mbps    VIDEO:    Codec                   Bitrate             Description       -----                   -------             -----------       MPEG-4 AVC Video        0 kbps              1080i / 29,970 fps / 16:9 / High Profile 4.1    AUDIO:    Codec                           Language        Bitrate         Description       -----                           --------        -------         -----------       LPCM Audio                      English         1536 kbps       2.0 / 48 kHz / 1536 kbps / 16-bit    FILES:    Name            Time In         Length          Size            Total Bitrate     ----            -------         ------          ----            -------------     00011.M2TS      0:00:00.000     0:04:31.371     0               0                 00012.M2TS      0:04:31.371     0:01:53.046     0               0                   CHAPTERS:    Number          Time In         Length          Avg Video Rate  Max 1-Sec Rate  Max 1-Sec Time  Max 5-Sec Rate  Max 5-Sec Time  Max 10Sec Rate  Max 10Sec Time  Avg Frame Size  Max Frame Size  Max Frame Time    ------          -------         ------          --------------  --------------  --------------  --------------  --------------  --------------  --------------  --------------  --------------  --------------    1               0:00:00.000     0:06:24.417     0 kbps          0 kbps          00:00:00.000    0 kbps          00:00:00.000    0 kbps          00:00:00.000    0 bytes         0 bytes         00:00:00.000        STREAM DIAGNOSTICS:    File            PID             Type            Codec           Language                Seconds                 Bitrate                 Bytes           Packets           ----            ---             ----            -----           --------                --------------          --------------          -------------   -----             00011.M2TS      4113 (0x1011)   0x1B            AVC                                     1,001                   0                       0               0                 00011.M2TS      4352 (0x1100)   0x80            LPCM            eng (English)           1,001                   0                       0               0                 00012.M2TS      4113 (0x1011)   0x1B            AVC                                     0                       0                       0               0                 00012.M2TS      4352 (0x1100)   0x80            LPCM            eng (English)           0                       0                       0               0                   

<–– END FORUMS PASTE ––>

QUICK SUMMARY:

Disc Title: Freddie Mercury Tribute Concert
Disc Size: 48 526 123 048 bytes
Protection: AACS
BD-Java: No
Playlist: 00009.MPLS
Size: 0 bytes
Length: 0:06:24.417
Total Bitrate: 0,00 Mbps
Video: MPEG-4 AVC Video / 0 kbps / 1080i / 29,970 fps / 16:9 / High Profile 4.1
Audio: English / LPCM Audio / 2.0 / 48 kHz / 1536 kbps / 16-bit

********************
PLAYLIST: 00010.MPLS
********************

<–- BEGIN FORUMS PASTE –->

                                                                                                                  Total   Video                                               Title                                                           Codec   Length  Movie Size      Disc Size       Bitrate Bitrate Main Audio Track                          Secondary Audio Track  -----                                                           ------  ------- --------------  --------------  ------- ------- ------------------                        ---------------------  00010.MPLS                                                      AVC     0:04:31 0               48 526 123 048  0,00    0,00    LPCM 2.0 1536Kbps (48kHz/16-bit)            

    DISC INFO:    Disc Title:     Freddie Mercury Tribute Concert  Disc Size:      48 526 123 048 bytes  Protection:     AACS  BD-Java:        No  BDInfo:         0.5.8    PLAYLIST REPORT:    Name:                   00010.MPLS  Length:                 0:04:31.371 (h:m:s.ms)  Size:                   0 bytes  Total Bitrate:          0,00 Mbps    VIDEO:    Codec                   Bitrate             Description       -----                   -------             -----------       MPEG-4 AVC Video        0 kbps              1080i / 29,970 fps / 16:9 / High Profile 4.1    AUDIO:    Codec                           Language        Bitrate         Description       -----                           --------        -------         -----------       LPCM Audio                      English         1536 kbps       2.0 / 48 kHz / 1536 kbps / 16-bit    FILES:    Name            Time In         Length          Size            Total Bitrate     ----            -------         ------          ----            -------------     00011.M2TS      0:00:00.000     0:04:31.371     0               0                   CHAPTERS:    Number          Time In         Length          Avg Video Rate  Max 1-Sec Rate  Max 1-Sec Time  Max 5-Sec Rate  Max 5-Sec Time  Max 10Sec Rate  Max 10Sec Time  Avg Frame Size  Max Frame Size  Max Frame Time    ------          -------         ------          --------------  --------------  --------------  --------------  --------------  --------------  --------------  --------------  --------------  --------------    1               0:00:00.000     0:04:31.371     0 kbps          0 kbps          00:00:00.000    0 kbps          00:00:00.000    0 kbps          00:00:00.000    0 bytes         0 bytes         00:00:00.000        STREAM DIAGNOSTICS:    File            PID             Type            Codec           Language                Seconds                 Bitrate                 Bytes           Packets           ----            ---             ----            -----           --------                --------------          --------------          -------------   -----             00011.M2TS      4113 (0x1011)   0x1B            AVC                                     1,001                   0                       0               0                 00011.M2TS      4352 (0x1100)   0x80            LPCM            eng (English)           1,001                   0                       0               0                   

<–– END FORUMS PASTE ––>

QUICK SUMMARY:

Disc Title: Freddie Mercury Tribute Concert
Disc Size: 48 526 123 048 bytes
Protection: AACS
BD-Java: No
Playlist: 00010.MPLS
Size: 0 bytes
Length: 0:04:31.371
Total Bitrate: 0,00 Mbps
Video: MPEG-4 AVC Video / 0 kbps / 1080i / 29,970 fps / 16:9 / High Profile 4.1
Audio: English / LPCM Audio / 2.0 / 48 kHz / 1536 kbps / 16-bit

********************
PLAYLIST: 00011.MPLS
********************

<–- BEGIN FORUMS PASTE –->

                                                                                                                  Total   Video                                               Title                                                           Codec   Length  Movie Size      Disc Size       Bitrate Bitrate Main Audio Track                          Secondary Audio Track  -----                                                           ------  ------- --------------  --------------  ------- ------- ------------------                        ---------------------  00011.MPLS                                                      AVC     0:01:53 0               48 526 123 048  0,00    0,00    LPCM 2.0 1536Kbps (48kHz/16-bit)            

    DISC INFO:    Disc Title:     Freddie Mercury Tribute Concert  Disc Size:      48 526 123 048 bytes  Protection:     AACS  BD-Java:        No  BDInfo:         0.5.8    PLAYLIST REPORT:    Name:                   00011.MPLS  Length:                 0:01:53.046 (h:m:s.ms)  Size:                   0 bytes  Total Bitrate:          0,00 Mbps    VIDEO:    Codec                   Bitrate             Description       -----                   -------             -----------       MPEG-4 AVC Video        0 kbps              1080i / 29,970 fps / 16:9 / High Profile 4.1    AUDIO:    Codec                           Language        Bitrate         Description       -----                           --------        -------         -----------       LPCM Audio                      English         1536 kbps       2.0 / 48 kHz / 1536 kbps / 16-bit    FILES:    Name            Time In         Length          Size            Total Bitrate     ----            -------         ------          ----            -------------     00012.M2TS      0:00:00.000     0:01:53.046     0               0                   CHAPTERS:    Number          Time In         Length          Avg Video Rate  Max 1-Sec Rate  Max 1-Sec Time  Max 5-Sec Rate  Max 5-Sec Time  Max 10Sec Rate  Max 10Sec Time  Avg Frame Size  Max Frame Size  Max Frame Time    ------          -------         ------          --------------  --------------  --------------  --------------  --------------  --------------  --------------  --------------  --------------  --------------    1               0:00:00.000     0:01:53.046     0 kbps          0 kbps          00:00:00.000    0 kbps          00:00:00.000    0 kbps          00:00:00.000    0 bytes         0 bytes         00:00:00.000        STREAM DIAGNOSTICS:    File            PID             Type            Codec           Language                Seconds                 Bitrate                 Bytes           Packets           ----            ---             ----            -----           --------                --------------          --------------          -------------   -----             00012.M2TS      4113 (0x1011)   0x1B            AVC                                     0                       0                       0               0                 00012.M2TS      4352 (0x1100)   0x80            LPCM            eng (English)           0                       0                       0               0                   

<–– END FORUMS PASTE ––>

QUICK SUMMARY:

Disc Title: Freddie Mercury Tribute Concert
Disc Size: 48 526 123 048 bytes
Protection: AACS
BD-Java: No
Playlist: 00011.MPLS
Size: 0 bytes
Length: 0:01:53.046
Total Bitrate: 0,00 Mbps
Video: MPEG-4 AVC Video / 0 kbps / 1080i / 29,970 fps / 16:9 / High Profile 4.1
Audio: English / LPCM Audio / 2.0 / 48 kHz / 1536 kbps / 16-bit

********************
PLAYLIST: 00013.MPLS
********************

<–- BEGIN FORUMS PASTE –->

                                                                                                                  Total   Video                                               Title                                                           Codec   Length  Movie Size      Disc Size       Bitrate Bitrate Main Audio Track                          Secondary Audio Track  -----                                                           ------  ------- --------------  --------------  ------- ------- ------------------                        ---------------------  00013.MPLS                                                      AVC     0:00:34 0               48 526 123 048  0,00    0,00                                                

    DISC INFO:    Disc Title:     Freddie Mercury Tribute Concert  Disc Size:      48 526 123 048 bytes  Protection:     AACS  BD-Java:        No  BDInfo:         0.5.8    PLAYLIST REPORT:    Name:                   00013.MPLS  Length:                 0:00:34.067 (h:m:s.ms)  Size:                   0 bytes  Total Bitrate:          0,00 Mbps    VIDEO:    Codec                   Bitrate             Description       -----                   -------             -----------       MPEG-4 AVC Video        0 kbps              1080i / 29,970 fps / 16:9 / High Profile 4.1    FILES:    Name            Time In         Length          Size            Total Bitrate     ----            -------         ------          ----            -------------     00017.M2TS      0:00:00.000     0:00:20.053     0               0                 00018.M2TS      0:00:20.053     0:00:08.008     0               0                 00019.M2TS      0:00:28.061     0:00:06.005     0               0                   CHAPTERS:    Number          Time In         Length          Avg Video Rate  Max 1-Sec Rate  Max 1-Sec Time  Max 5-Sec Rate  Max 5-Sec Time  Max 10Sec Rate  Max 10Sec Time  Avg Frame Size  Max Frame Size  Max Frame Time    ------          -------         ------          --------------  --------------  --------------  --------------  --------------  --------------  --------------  --------------  --------------  --------------    1               0:00:00.000     0:00:34.067     0 kbps          0 kbps          00:00:00.000    0 kbps          00:00:00.000    0 kbps          00:00:00.000    0 bytes         0 bytes         00:00:00.000        STREAM DIAGNOSTICS:    File            PID             Type            Codec           Language                Seconds                 Bitrate                 Bytes           Packets           ----            ---             ----            -----           --------                --------------          --------------          -------------   -----             00017.M2TS      4113 (0x1011)   0x1B            AVC                                     0                       0                       0               0                 00018.M2TS      4113 (0x1011)   0x1B            AVC                                     0                       0                       0               0                 00019.M2TS      4113 (0x1011)   0x1B            AVC                                     0                       0                       0               0                   

<–– END FORUMS PASTE ––>

QUICK SUMMARY:

Disc Title: Freddie Mercury Tribute Concert
Disc Size: 48 526 123 048 bytes
Protection: AACS
BD-Java: No
Playlist: 00013.MPLS
Size: 0 bytes
Length: 0:00:34.067
Total Bitrate: 0,00 Mbps
Video: MPEG-4 AVC Video / 0 kbps / 1080i / 29,970 fps / 16:9 / High Profile 4.1

The Freddie Mercury Tribute Concert (2013)

The Freddie Mercury Tribute Concert (2013)

Dark Horse and Dynamite Week Pack (07-12-2017)

Dark Horse and Dynamite Week Pack (07-12-2017)

Dark Horse and Dynamite Week Pack (07-12-2017)

All thanks go to palikdrive

Queen in my Blog

Download The Freddie Mercury Tribute Concert (2013):

The Freddie Mercury Tribute Concert (2013) Download, Warez, DDL, Free, Full Album, Torrent, Legal.

Download