The Fantomas Melvins Big Band – Live From London 2006 (2008) **[RE-UP]**

Download
The Fantomas Melvins Big Band - Live From London 2006 (2008) **[RE-UP]**

The Fantomas Melvins Big Band – Live From London 2006 (2008)
DVD rip | AVI: Simple@L1 (720 x 480, 1505 Kbps) | Audio: MP3 (320 Kbps) | 68 min | English | 999 mb
Genre: indie rock, experimental rock, grunge rock, alternative rock, noise rock

Live From London 2006 is a 2008 DVD by The Fantomas Melvins Big Band, a combination band involving members of Fantomas and (The) Melvins. The performance was shot in England at the Kentish Town Forum.

1. Sacrifice (11:28)
2. Page 27 (2:47)
3. Night Goat (5:06)
4. Page 28 (3:26)
5. Page 3 (1:00)
6. Electric Long Thin Wire (1:23)
7. The Bit (5:39)
8. Page 14 (8:14)
9. Pigs Of The Roman Empire (8:42)
10. The Omen (1:49)
11. Hooch (1:22)
12. Mombius Hibachi/Page 23 (2:05)
13. Skin Horse (2:47)
14. Cape Fear (1:43)
15. Let It All Be (5:04)
16. Lowrider (1:36)
17. 04/02/05 Saturday (1:58)
18. Page 29 (1:27)
19. 04/08/05 Friday (6:01)
20. Spider Baby (3:19)

The Fantomas Melvins Big Band - Live From London 2006 (2008) **[RE-UP]**

Mike Patton-keyboards, vocals
Buzz Osborne-guitar, vocals
Dave Lombardo-drums
Trevor Dunn-bass
Dale Crover-drums
Sir David Scott Stone-guitar

Recorded on 1 May, 2006 at Kentish Town Forum

MediaInfo (LOG)
General
Complete name : E:FLACAAA 2017VidsThe Fantomas Melvins Big Band – Live From London 2006 (2008)The Fantomas Melvins Big Band – Live From London 2006 (2008).avi
Format : AVI
Format/Info : Audio Video Interleave
Format profile : OpenDML
File size : 1.01 GiB
Duration : 1h 18mn
Overall bit rate : 1 844 Kbps
Writing application : Lavf51.12.1

Video
ID : 0
Format : MPEG-4 Visual
Format profile : Simple@L1
Format settings, BVOP : No
Format settings, QPel : No
Format settings, GMC : No warppoints
Format settings, Matrix : Default (H.263)
Codec ID : DX50
Codec ID/Hint : DivX 5
Duration : 1h 18mn
Bit rate : 1 505 Kbps
Width : 720 pixels
Height : 480 pixels
Display aspect ratio : 3:2
Frame rate : 29.970 fps
Standard : NTSC
Color space : YUV
Chroma subsampling : 4:2:0
Bit depth : 8 bits
Scan type : Progressive
Compression mode : Lossy
Bits/(Pixel*Frame) : 0.145
Stream size : 843 MiB (82%)
Writing library : Lavc51.40.4

Audio
ID : 1
Format : MPEG Audio
Format version : Version 1
Format profile : Layer 3
Mode : Joint stereo
Mode extension : MS Stereo
Codec ID : 55
Codec ID/Hint : MP3
Duration : 1h 18mn
Bit rate mode : Constant
Bit rate : 320 Kbps
Channel(s) : 2 channels
Sampling rate : 48.0 KHz
Compression mode : Lossy
Stream size : 179 MiB (17%)
Alignment : Aligned on interleaves
Interleave, duration : 24 ms (0.72 video frame)
Writing library : LAME3.97

The Fantomas Melvins Big Band - Live From London 2006 (2008) **[RE-UP]**

The Fantomas Melvins Big Band – Live From London 2006 (2008) **[RE-UP]** Download, Warez, DDL, Free, Full Album, Torrent, Legal.

Download