The Fabulous Thunderbirds – T-Bird Rhythm (1982)

Download
The Fabulous Thunderbirds - T-Bird Rhythm (1982)

The Fabulous Thunderbirds – T-Bird Rhythm (1982)
EAC Rip | FLAC with CUE and log | scans | 221 mb
MP3 CBR 320kbps | RAR | 81 mb
Genre: rock, rock’n’roll, R&B

T-Bird Rhythm is the 1982 album by The Fabulous Thunderbirds. Released by Chrysalis Records, this was a few years before they had hit songs but is an album full of funk rock’n’rhythm & blues.

The Fabulous Thunderbirds - T-Bird Rhythm (1982)

1. Can’t Tear It Up Enuff (3:00)
2. How Do You Spell Love (2:18)
3. You’re Humbuggin’ Me (3:46)
4. My Babe (2:50)
5. "Neighbor" Tend To You Business (3:20)
6. The Monkey (3:14)
7. Diddy Wah Diddy (2:34)
8. Lover’s Crime (2:40)
9. Poor Boy (3:20)
10. Tell Me (2:36)
11. Gotta Have Some/Just Got Some (4:30)

Kim Wilson-vocals, harmonica
Jimmie Vaughan-guitar
Keith Ferguson-bass
Fran Christina-drums, backing vocals

Produced by Nick Lowe
Engineer: Colin Fairley
Tape Operator: Dennis Davis

EAC Log
Exact Audio Copy V1.1 from 23. June 2015

EAC extraction logfile from 27. December 2016, 8:08

The Fabulous Thunderbirds / T-Bird Rhythm

Used drive : TEAC DVD-ROM DV-28SW Adapter: 1 ID: 0

Read mode : Secure
Utilize accurate stream : Yes
Defeat audio cache : Yes
Make use of C2 pointers : No

Read offset correction : 6
Overread into Lead-In and Lead-Out : No
Fill up missing offset samples with silence : Yes
Delete leading and trailing silent blocks : No
Null samples used in CRC calculations : Yes
Used interface : Native Win32 interface for Win NT & 2000
Gap handling : Appended to previous track

Used output format : Internal WAV Routines
Sample format : 44.100 Hz; 16 Bit; Stereo

TOC of the extracted CD

Track | Start | Length | Start sector | End sector
––––––––––––––––––––––––––––-
1 | 0:00.00 | 3:01.50 | 0 | 13624
2 | 3:01.50 | 2:17.10 | 13625 | 23909
3 | 5:18.60 | 3:42.42 | 23910 | 40601
4 | 9:01.27 | 2:50.65 | 40602 | 53416
5 | 11:52.17 | 3:21.40 | 53417 | 68531
6 | 15:13.57 | 3:13.48 | 68532 | 83054
7 | 18:27.30 | 2:35.60 | 83055 | 94739
8 | 21:03.15 | 2:35.17 | 94740 | 106381
9 | 23:38.32 | 3:22.28 | 106382 | 121559
10 | 27:00.60 | 3:44.02 | 121560 | 138361
11 | 30:44.62 | 4:39.05 | 138362 | 159291

Track 1

Filename C:My DocumentsMy FLACThe Fabulous Thunderbirds – T-Bird Rhythm (1982) [FLAC]1 – Can’t Tear It Up Enuff.wav

Pre-gap length 0:00:02.00

Peak level 100.0 %
Extraction speed 1.7 X
Track quality 100.0 %
Test CRC C607E9CC
Copy CRC C607E9CC
Accurately ripped (confidence 4) [38DCDB03] (AR v2)
Copy OK

Track 2

Filename C:My DocumentsMy FLACThe Fabulous Thunderbirds – T-Bird Rhythm (1982) [FLAC]2 – How Do You Spell Love.wav

Peak level 100.0 %
Extraction speed 1.5 X
Track quality 99.9 %
Test CRC 9202E86A
Copy CRC 9202E86A
Accurately ripped (confidence 4) [0D71B721] (AR v2)
Copy OK

Track 3

Filename C:My DocumentsMy FLACThe Fabulous Thunderbirds – T-Bird Rhythm (1982) [FLAC]3 – You’re Humbuggin’ Me.wav

Peak level 100.0 %
Extraction speed 2.1 X
Track quality 100.0 %
Test CRC DA6F2FAE
Copy CRC DA6F2FAE
Accurately ripped (confidence 4) [6DE90184] (AR v2)
Copy OK

Track 4

Filename C:My DocumentsMy FLACThe Fabulous Thunderbirds – T-Bird Rhythm (1982) [FLAC]4 – My Babe.wav

Peak level 78.8 %
Extraction speed 2.1 X
Track quality 100.0 %
Test CRC A9218183
Copy CRC A9218183
Accurately ripped (confidence 4) [AA8C2EF9] (AR v2)
Copy OK

Track 5

Filename C:My DocumentsMy FLACThe Fabulous Thunderbirds – T-Bird Rhythm (1982) [FLAC]5 – ”Neighbor” Tend To Your Business.wav

Peak level 85.2 %
Extraction speed 2.0 X
Track quality 99.9 %
Test CRC E58BC288
Copy CRC E58BC288
Accurately ripped (confidence 4) [98EFA1E4] (AR v2)
Copy OK

Track 6

Filename C:My DocumentsMy FLACThe Fabulous Thunderbirds – T-Bird Rhythm (1982) [FLAC]6 – The Monkey.wav

Peak level 98.2 %
Extraction speed 2.4 X
Track quality 100.0 %
Test CRC BBB529BD
Copy CRC BBB529BD
Accurately ripped (confidence 4) [4BDC77FF] (AR v2)
Copy OK

Track 7

Filename C:My DocumentsMy FLACThe Fabulous Thunderbirds – T-Bird Rhythm (1982) [FLAC]7 – Diddy Wah Diddy.wav

Peak level 100.0 %
Extraction speed 2.4 X
Track quality 100.0 %
Test CRC 6AE23E72
Copy CRC 6AE23E72
Accurately ripped (confidence 4) [1A8E441E] (AR v2)
Copy OK

Track 8

Filename C:My DocumentsMy FLACThe Fabulous Thunderbirds – T-Bird Rhythm (1982) [FLAC]8 – Lover’s Crime.wav

Peak level 100.0 %
Extraction speed 2.5 X
Track quality 100.0 %
Test CRC 9BA2EEC6
Copy CRC 9BA2EEC6
Accurately ripped (confidence 4) [0BAEBF99] (AR v2)
Copy OK

Track 9

Filename C:My DocumentsMy FLACThe Fabulous Thunderbirds – T-Bird Rhythm (1982) [FLAC]9 – Poor Boy.wav

Peak level 86.6 %
Extraction speed 2.7 X
Track quality 100.0 %
Test CRC FED312D0
Copy CRC FED312D0
Accurately ripped (confidence 4) [2032FA72] (AR v2)
Copy OK

Track 10

Filename C:My DocumentsMy FLACThe Fabulous Thunderbirds – T-Bird Rhythm (1982) [FLAC]10 – Tell Me (Pretty Baby).wav

Peak level 82.9 %
Extraction speed 2.8 X
Track quality 100.0 %
Test CRC 0A608DD6
Copy CRC 0A608DD6
Accurately ripped (confidence 4) [EADA5F04] (AR v2)
Copy OK

Track 11

Filename C:My DocumentsMy FLACThe Fabulous Thunderbirds – T-Bird Rhythm (1982) [FLAC]11 – Gotta Have Some, Just Got Some.wav

Peak level 100.0 %
Extraction speed 0.7 X
Track quality 100.0 %
Test CRC 58ACFCFD
Copy CRC 58ACFCFD
Accurately ripped (confidence 4) [5079F99E] (AR v2)
Copy OK

All tracks accurately ripped

No errors occurred

End of status report

–– CUETools DB Plugin V2.1.6

[CTDB TOCID: BMiYgwUtILzSVcUMQPbrlUH6JBY-] found
Submit result: BMiYgwUtILzSVcUMQPbrlUH6JBY- has been confirmed
Track | CTDB Status
1 | (4/5) Accurately ripped
2 | (4/5) Accurately ripped
3 | (4/5) Accurately ripped
4 | (4/5) Accurately ripped
5 | (4/5) Accurately ripped
6 | (4/5) Accurately ripped
7 | (4/5) Accurately ripped
8 | (4/5) Accurately ripped
9 | (4/5) Accurately ripped
10 | (4/5) Accurately ripped
11 | (4/5) Accurately ripped

==== Log checksum 6CD1129491BADD963E398AE21DAFE05CBC6C824743121C221E5BD5A9B8ED78CB ====

The Fabulous Thunderbirds - T-Bird Rhythm (1982)

The Fabulous Thunderbirds – T-Bird Rhythm (1982) Download, Warez, DDL, Free, Full Album, Torrent, Legal.

Download