The Eagles – Kennedy Center Honors (2016) [HDTV 1080i] | ViralVideoPk

Daily Dose of Free Downloads

The Eagles – Kennedy Center Honors (2016) [HDTV 1080i]

Download

The Eagles - Kennedy Center Honors (2016) [HDTV 1080i]

The Eagles – Kennedy Center Honors (2016)
TS: MPEG2 Video 1920×1080 29.97fps 15.2 Mbps / AC3 6ch 384kbps
Classic Rock / Country Rock | 00:20:23 | ~ 2.46 Gb

~ Representing the Eagles were Joe Walsh, Don Henley, Timothy B. Schmidt and Cindy Millican (Glenn Frey’s wife). ~

The Eagles - Kennedy Center Honors (2016) [HDTV 1080i]

Eagles at Wiki | Eagles at Discogs | Eagles at Allmusic | Eagles HomePage

***********

The Eagles – Kennedy Center Honors (2016):

Tracklist:

01 President Obama clip
02 intro – Ringo Starr
03 Take It Easy – Kings of Leon
04 Hotel California – Juanes, Steve Vai and Steuart Smith
05 Peaceful Easy Feeling – Vince Gill
06 Heartache Tonight – Bob Seger
07 Life In The Fast Lane – All plus Stephen Colbert

MediaInfo
General
ID : 1 (0x1)
Complete name : G:UPMixThe Eagles 2016 – Kennedy Center HonorsThe Eagles – Kennedy Center Honors 2016.ts
Format : MPEG-TS
File size : 2.34 GiB
Duration : 20mn 22s
Overall bit rate mode : Variable
Overall bit rate : 16.4 Mbps
Maximum Overall bit rate : 35.5 Mbps

Video
ID : 4113 (0x1011)
Menu ID : 1 (0x1)
Format : MPEG Video
Format version : Version 2
Format profile : Main@High
Format settings, BVOP : Yes
Format settings, Matrix : Custom
Format settings, GOP : Variable
Codec ID : 2
Duration : 20mn 22s
Bit rate mode : Variable
Bit rate : 15.2 Mbps
Maximum bit rate : 80.0 Mbps
Width : 1 920 pixels
Height : 1 080 pixels
Display aspect ratio : 16:9
Frame rate : 29.970 fps
Color space : YUV
Chroma subsampling : 4:2:0
Bit depth : 8 bits
Scan type : Interlaced
Scan order : Top Field First
Compression mode : Lossy
Bits/(Pixel*Frame) : 0.245
Time code of first frame : 00:00:00;00
Time code source : Group of pictures header
Stream size : 2.17 GiB (93%)
Color primaries : BT.709
Transfer characteristics : BT.709
Matrix coefficients : BT.709

Audio
ID : 4352 (0x1100)
Menu ID : 1 (0x1)
Format : AC-3
Format/Info : Audio Coding 3
Mode extension : CM (complete main)
Format settings, Endianness : Big
Codec ID : 129
Duration : 20mn 22s
Bit rate mode : Constant
Bit rate : 384 Kbps
Channel(s) : 6 channels
Channel positions : Front: L C R, Side: L R, LFE
Sampling rate : 48.0 KHz
Bit depth : 16 bits
Compression mode : Lossy
Delay relative to video : 12ms
Stream size : 56.0 MiB (2%)
Language : English

Text
ID : 4113 (0x1011)-CC1
Menu ID : 1 (0x1)
Format : EIA-608
Muxing mode : A/53 / DTVCC Transport
Muxing mode, more info : Muxed in Video #1
Duration : 20mn 22s
Bit rate mode : Constant
Stream size : 0.00 Byte (0%)

The Eagles - Kennedy Center Honors (2016) [HDTV 1080i]

The Eagles - Kennedy Center Honors (2016) [HDTV 1080i]

The Eagles - Kennedy Center Honors (2016) [HDTV 1080i]

The Eagles - Kennedy Center Honors (2016) [HDTV 1080i]

The Eagles - Kennedy Center Honors (2016) [HDTV 1080i]

All thanks go to meloman67

The Eagles in my Blog

Download The Eagles – Kennedy Center Honors (2016):

The Eagles – Kennedy Center Honors (2016) [HDTV 1080i] Download, Warez, DDL, Free, Full Album, Torrent, Legal.

Download


  • Recent Posts

  • Recent Tags