The Dubliners – The Dubliners With Luke Kelly (1964) {Castle Music CMRCD785 rel 2003} | ViralVideoPk

Daily Dose of Free Downloads

The Dubliners – The Dubliners With Luke Kelly (1964) {Castle Music CMRCD785 rel 2003}

Download

The Dubliners - The Dubliners With Luke Kelly (1964) {Castle Music CMRCD785 rel 2003}

The Dubliners – The Dubliners With Luke Kelly (1964) {Castle Music CMRCD785 rel 2003}
EAC rip (secure mode) | FLAC (tracks)+CUE+LOG -> 359 Mb | MP3 @320 -> 147 Mb
Full Artwork @ 600 dpi (jpg) -> 109 Mb | 5% repair rar
© 1964, 2003 Transatlantic Records / Castle Music / Sanctuary Records | CMRCD785
Folk / Irish Folk / Traditional Irish Folk / Celtic / Drinking Songs

The Dubliners with Luke Kelly is the debut album by The Dubliners. It was produced by Nathan Joseph and released by Transatlantic Records in 1964. The line-up consisted of Ronnie Drew, Barney McKenna, Luke Kelly and Ciaran Bourke. The original LP title was simply "The Dubliners". When Luke died and the magnitude of his contribution was realised, the record company changed it.

Recorded in 1963, the Dubliners’ eponymous debut record helped to bring Irish folk music to the masses, and launched a prolific career that continues to excite, influence, and inform audiences and musicians worldwide. Iconic producer Bill Leader – he engineered nearly every landmark U.K. folk record throughout the ’60s and ’70s – invited a live audience to London’s Livingston Studios in an effort to capture the group’s raucous pub sound and musical versatility. Those efforts paid off, as The Dubliners still resonates with youthful enthusiasm and a warm, wonderful intimacy sadly missing from the genre’s current live recordings. Castle Music’s 2003 reissue features the original 14-track recording, which includes the definitive versions of Celtic standards like "The Wild Rover" and "The Rocky Road to Dublin." It also features the entire 1965 Transatlantic Dubliners in Person EP, including the song "Rare Old Mountain Dew," later re-recorded in 1987 with the Pogues. The final six tunes are previously unreleased gems like "Roddy McCorley" and "Chief O’Neill’s/Cork Hornpipe," the latter of which would appear on their follow-up, Finnegan Wakes, and go on to become a live staple and fan favorite. The improved sound quality and informative liner notes by John O’Regan are reason enough to pick up this classic recording, but in the end it’s the music that speaks the loudest, offering a peek into the creation of one of folk music’s best-loved and most enduring ensembles.

The Dubliners - The Dubliners With Luke Kelly (1964) {Castle Music CMRCD785 rel 2003}

Musicians:
Barney McKenna: Tenor banjo and mandolin
Luke Kelly: Vocals and 5 string banjo
Ronnie Drew: Vocals and guitar
Ciarán Bourke: Tin whistle, harmonica, guitar and vocals

Track Listing:
01. The Wild Rover" – 3:13
02."The Ragman’s Ball" – 2:08
03."Preab San Ól" – 2:14
04."The High Reel" – 2:58
05."The Holy Ground" – 2:15
06."Tramps and Hawkers" – 3:06
07."Home Boys, Home" – 3:17
08."Rocky Road to Dublin" – 2:34
09."Banks of the Roses" – 2:12
10."I’ll Tell Me Ma" – 2:06
11."Swallow’s Tail Reel" – 2:49
12."Jar of Porter" – 2:14
13."Love Is Pleasing" – 1:47
14."The Nightingale" – 3:35

Bonus tracks
– The Dubliners in Person EP

15. Rare Old Mountain Dew
16. McAlpine’s Fusiliers Behan
17. Willie Gannon
18. Mrs. McGrath
19. I Wish (Till Apples Grow On An Ivy Tree)

– Unreleased tracks:
20. Roddy McCorley
21. Chief O Neill’s/Corck Hornpipe
22. Instrumental
23. The Wild Rover
24. The Wild Rover

EAC log
Exact Audio Copy V1.0 beta 2 from 29. April 2011

EAC extraction logfile from 6. August 2012, 20:53

The Dubliners / The Dubliners With Luke Kelly

Used drive : PLEXTOR DVDR PX-L890SA Adapter: 2 ID: 1

Read mode : Secure
Utilize accurate stream : Yes
Defeat audio cache : Yes
Make use of C2 pointers : No

Read offset correction : 6
Overread into Lead-In and Lead-Out : No
Fill up missing offset samples with silence : Yes
Delete leading and trailing silent blocks : No
Null samples used in CRC calculations : Yes
Used interface : Native Win32 interface for Win NT & 2000
Gap handling : Appended to previous track

Used output format : User Defined Encoder
Selected bitrate : 256 kBit/s
Quality : High
Add ID3 tag : No
Command line compressor : C:Program Files (x86)Exact Audio CopyFLACFLAC.EXE
Additional command line options : -8 -V -T "ARTIST=%artist%" -T "TITLE=%title%" -T "ALBUM=%albumtitle%" -T "DATE=%year%" -T "TRACKNUMBER=%tracknr%" -T "TOTALTRACKS=%numtracks%" -T "GENRE=%genre%" -T "ALBUMARTIST=%albumartist%" -T "ALBUM ARTIST=%albumartist%

TOC of the extracted CD

Track | Start | Length | Start sector | End sector
––––––––––––––––––––––––––––-
1 | 0:00.00 | 3:13.37 | 0 | 14511
2 | 3:13.37 | 2:08.29 | 14512 | 24140
3 | 5:21.66 | 2:14.43 | 24141 | 34233
4 | 7:36.34 | 2:58.49 | 34234 | 47632
5 | 10:35.08 | 2:15.34 | 47633 | 57791
6 | 12:50.42 | 3:06.09 | 57792 | 71750
7 | 15:56.51 | 3:17.09 | 71751 | 86534
8 | 19:13.60 | 2:34.74 | 86535 | 98158
9 | 21:48.59 | 2:12.63 | 98159 | 108121
10 | 24:01.47 | 2:06.36 | 108122 | 117607
11 | 26:08.08 | 2:49.36 | 117608 | 130318
12 | 28:57.44 | 2:14.17 | 130319 | 140385
13 | 31:11.61 | 1:47.69 | 140386 | 148479
14 | 32:59.55 | 3:35.24 | 148480 | 164628
15 | 36:35.04 | 1:30.63 | 164629 | 171441
16 | 38:05.67 | 3:14.31 | 171442 | 186022
17 | 41:20.23 | 1:39.09 | 186023 | 193456
18 | 42:59.32 | 3:06.03 | 193457 | 207409
19 | 46:05.35 | 2:11.43 | 207410 | 217277
20 | 48:17.03 | 2:46.09 | 217278 | 229736
21 | 51:03.12 | 2:55.16 | 229737 | 242877
22 | 53:58.28 | 1:08.51 | 242878 | 248028
23 | 55:07.04 | 3:33.58 | 248029 | 264061
24 | 58:40.62 | 3:31.71 | 264062 | 279957

Track 1

Filename F:Flac Rips1 – The Wild Rover.wav

Pre-gap length 0:00:02.00

Peak level 99.7 %
Extraction speed 3.4 X
Track quality 100.0 %
Test CRC 388E1A73
Copy CRC 388E1A73
Accurately ripped (confidence 2) [8B5B3239] (AR v1)
Copy OK

Track 2

Filename F:Flac Rips2 – The Ragman’s Ball.wav

Peak level 99.7 %
Extraction speed 3.4 X
Track quality 100.0 %
Test CRC 2D83E25E
Copy CRC 2D83E25E
Accurately ripped (confidence 2) [1DB5CB6E] (AR v1)
Copy OK

Track 3

Filename F:Flac Rips3 – Preab San Ol.wav

Peak level 99.7 %
Extraction speed 3.7 X
Track quality 100.0 %
Test CRC 12837713
Copy CRC 12837713
Accurately ripped (confidence 2) [2F441C55] (AR v1)
Copy OK

Track 4

Filename F:Flac Rips4 – The High Reel.wav

Peak level 99.7 %
Extraction speed 4.1 X
Track quality 100.0 %
Test CRC 80837104
Copy CRC 80837104
Accurately ripped (confidence 2) [B1C4F95B] (AR v1)
Copy OK

Track 5

Filename F:Flac Rips5 – The Holy Ground.wav

Peak level 99.7 %
Extraction speed 2.9 X
Track quality 99.9 %
Test CRC 99335A5D
Copy CRC 99335A5D
Accurately ripped (confidence 2) [452BAE64] (AR v1)
Copy OK

Track 6

Filename F:Flac Rips6 – Tramps And Hawkers.wav

Peak level 100.0 %
Extraction speed 4.5 X
Track quality 100.0 %
Test CRC 887437D0
Copy CRC 887437D0
Accurately ripped (confidence 2) [9F51C716] (AR v1)
Copy OK

Track 7

Filename F:Flac Rips7 – Home Boys Home.wav

Peak level 90.8 %
Extraction speed 4.8 X
Track quality 100.0 %
Test CRC B5C59886
Copy CRC B5C59886
Accurately ripped (confidence 2) [F93E28BB] (AR v1)
Copy OK

Track 8

Filename F:Flac Rips8 – Rocky Road To Dublin.wav

Peak level 99.7 %
Extraction speed 4.7 X
Track quality 100.0 %
Test CRC 3C5F19B0
Copy CRC 3C5F19B0
Accurately ripped (confidence 2) [95058829] (AR v1)
Copy OK

Track 9

Filename F:Flac Rips9 – Banks Of The Roses.wav

Peak level 99.7 %
Extraction speed 4.8 X
Track quality 100.0 %
Test CRC 4CD21205
Copy CRC 4CD21205
Accurately ripped (confidence 2) [FDEAF345] (AR v1)
Copy OK

Track 10

Filename F:Flac Rips10 – I’ll Tell My Ma.wav

Pre-gap length 0:00:00.01

Peak level 99.7 %
Extraction speed 3.4 X
Track quality 99.9 %
Test CRC 90D0C423
Copy CRC 90D0C423
Accurately ripped (confidence 2) [3D04F47B] (AR v1)
Copy OK

Track 11

Filename F:Flac Rips11 – Swallow’s Tail Reel.wav

Peak level 99.7 %
Extraction speed 5.3 X
Track quality 100.0 %
Test CRC B21220D9
Copy CRC B21220D9
Accurately ripped (confidence 2) [CC9CAF09] (AR v1)
Copy OK

Track 12

Filename F:Flac Rips12 – Love is Pleasing.wav

Peak level 99.7 %
Extraction speed 5.2 X
Track quality 100.0 %
Test CRC C0DB9D7E
Copy CRC C0DB9D7E
Accurately ripped (confidence 2) [B4CE1CE4] (AR v1)
Copy OK

Track 13

Filename F:Flac Rips13 – Jar of Porter.wav

Peak level 99.7 %
Extraction speed 4.9 X
Track quality 100.0 %
Test CRC 4ABA8BF9
Copy CRC 4ABA8BF9
Accurately ripped (confidence 2) [7B837B53] (AR v1)
Copy OK

Track 14

Filename F:Flac Rips14 – The Nightingale.wav

Peak level 99.7 %
Extraction speed 5.9 X
Track quality 100.0 %
Test CRC DC4EBB43
Copy CRC DC4EBB43
Accurately ripped (confidence 2) [28879269] (AR v1)
Copy OK

Track 15

Filename F:Flac Rips15 – Rare Old Mountain Dew.wav

Pre-gap length 0:00:01.13

Peak level 88.4 %
Extraction speed 5.1 X
Track quality 100.0 %
Test CRC 3C3F3938
Copy CRC 3C3F3938
Accurately ripped (confidence 2) [86E8E15E] (AR v1)
Copy OK

Track 16

Filename F:Flac Rips16 – Mcalpine’s Fusiliers Behan.wav

Peak level 88.4 %
Extraction speed 6.1 X
Track quality 100.0 %
Test CRC 953A79FA
Copy CRC 953A79FA
Accurately ripped (confidence 2) [356436C4] (AR v1)
Copy OK

Track 17

Filename F:Flac Rips17 – Willie Gannon.wav

Peak level 88.4 %
Extraction speed 5.4 X
Track quality 100.0 %
Test CRC 2630BA6B
Copy CRC 2630BA6B
Accurately ripped (confidence 2) [5467EBE5] (AR v1)
Copy OK

Track 18

Filename F:Flac Rips18 – Mrs Mcgrath.wav

Peak level 88.4 %
Extraction speed 6.4 X
Track quality 100.0 %
Test CRC E05AF6A5
Copy CRC E05AF6A5
Accurately ripped (confidence 2) [FC434704] (AR v1)
Copy OK

Track 19

Filename F:Flac Rips19 – I Wish (Till Apples Grow On An Ivy Tree).wav

Pre-gap length 0:00:01.61

Peak level 77.4 %
Extraction speed 6.0 X
Track quality 100.0 %
Test CRC D638229C
Copy CRC D638229C
Accurately ripped (confidence 2) [AE08BC98] (AR v1)
Copy OK

Track 20

Filename F:Flac Rips20 – Roddy McCorley.wav

Pre-gap length 0:00:01.58

Peak level 99.7 %
Extraction speed 6.5 X
Track quality 100.0 %
Test CRC 50BB86B7
Copy CRC 50BB86B7
Accurately ripped (confidence 2) [15E2B293] (AR v1)
Copy OK

Track 21

Filename F:Flac Rips21 – Cork Hornpipe.wav

Pre-gap length 0:00:01.03

Peak level 83.9 %
Extraction speed 6.6 X
Track quality 100.0 %
Test CRC 2078D2D4
Copy CRC 2078D2D4
Accurately ripped (confidence 2) [4A5C8E99] (AR v1)
Copy OK

Track 22

Filename F:Flac Rips22 – Instrumental.wav

Pre-gap length 0:00:00.48

Peak level 83.9 %
Extraction speed 3.1 X
Track quality 99.8 %
Test CRC 592420E3
Copy CRC 592420E3
Accurately ripped (confidence 2) [45FC32A1] (AR v1)
Copy OK

Track 23

Filename F:Flac Rips23 – The Wild Rover.wav

Pre-gap length 0:00:01.34

Peak level 99.7 %
Extraction speed 5.5 X
Track quality 99.9 %
Test CRC 47AACED9
Copy CRC 47AACED9
Accurately ripped (confidence 2) [D66ACFAA] (AR v1)
Copy OK

Track 24

Filename F:Flac Rips24 – The Wild Rover.wav

Peak level 99.7 %
Extraction speed 7.2 X
Track quality 100.0 %
Test CRC B7479E36
Copy CRC B7479E36
Cannot be verified as accurate (confidence 2) [AE2B6EFA], AccurateRip returned [9CB9FFCA] (AR v2)
Copy OK

23 track(s) accurately ripped
1 track(s) could not be verified as accurate

Some tracks could not be verified as accurate

No errors occurred

End of status report

==== Log checksum 945CC92BD778DCFB8CAB2464BF96BE8C304F3A0C25A093573DB0E4A886B62E19 ====

The Dubliners - The Dubliners With Luke Kelly (1964) {Castle Music CMRCD785 rel 2003}

The Dubliners - The Dubliners With Luke Kelly (1964) {Castle Music CMRCD785 rel 2003}

All thanks goes to the original releaser!

The Dubliners – The Dubliners With Luke Kelly (1964) {Castle Music CMRCD785 rel 2003} Download, Warez, DDL, Free, Full Album, Torrent, Legal.

Download


  • Recent Posts

  • Recent Tags