The Dubliners – More of the Hard Stuff (1967) {Major Minor-EMI rel 2012} | ViralVideoPk

Daily Dose of Free Downloads

The Dubliners – More of the Hard Stuff (1967) {Major Minor-EMI rel 2012}

Download

The Dubliners - More of the Hard Stuff (1967) {Major Minor-EMI rel 2012}

The Dubliners – More of the Hard Stuff (1967) {Major Minor-EMI rel 2012}
EAC rip (secure mode) | FLAC (tracks)+CUE+LOG -> 121 Mb | MP3 @320 -> 74 Mb
Full Artwork @ 600 dpi (jpg) -> 89 Mb | 5% repair rar
© 1967, 2012 Major Minor Records Limited / EMI Records | 50999 4 64295 2 0 | Remastered
Folk / Irish Folk / Traditional Irish Folk / Celtic / Drinking Songs

The follow-up to A Drop of the Hard Stuff, released earlier the same year, is every bit as good, filled with great and spirited renditions of songs about rebellion, whiskey, and independence, plus a sea song or two. This was also the album on which the group introduced its de facto signature tune, "Whiskey in the Jar"." The high spirits and the ebullience of the performances almost mask the fact that these guys are virtuoso players and second-to-nobody as singers – as a result, the whole album rates multiple listens, even more so than its predecessor.

More of the Hard Stuff is an album by The Dubliners, originally released in 1967. The line-up consists of Ronnie Drew, Luke Kelly, Barney McKenna, Ciaran Bourke and John Sheahan. True to its title, five of the songs concern hard drinking. Three of the songs were written by Brendan Behan. The album reached number 8 in the album charts in 1967, and stayed in the charts for 23 weeks.

The Dubliners - More of the Hard Stuff (1967) {Major Minor-EMI rel 2012}

The Dubliners:
Ronnie Drew: Vocals and Guitar
Luke Kelly: Vocals and 5-String Banjo
Barney McKenna: Tenor Banjo and Mandolin
Ciarán Bourke: Tin Whistle, Harmonica, Guitar and Vocals
John Sheahan: Fiddle, Tin Whistle and Mandolin

Track Listing:
01. Muirsheen Durkin (Trad)
02. Poor Old Dicey Reilly (Behan)
03. A Nation Once Again (Davis)
04. Whiskey in the Jar (Trad)
05. The Old Triangle (Behan)
06. A Pub with No Beer (Parsons)
07. Kelly, the Boy from Killan" (Trad)
08. The Croppy Boy (Trad)
09. Sullivan’s John (*) (Trad/ Dunne)
10. Come and Join the British Army (Trad)
11. (The Bonny) Shoals of Herring (MacColl)
12. Mormon Braes (Trad)
13. Drink It Up Men (Meek)
14. Maloney Wants a Drink (Behan)

EAC log
Exact Audio Copy V1.0 beta 3 from 29. August 2011

EAC extraction logfile from 13. July 2012, 20:53

The Dubliners / More of the Hard Stuff

Used drive : HL-DT-STDVD-RAM GH22LP20 Adapter: 5 ID: 0

Read mode : Secure
Utilize accurate stream : Yes
Defeat audio cache : Yes
Make use of C2 pointers : No

Read offset correction : 102
Overread into Lead-In and Lead-Out : No
Fill up missing offset samples with silence : Yes
Delete leading and trailing silent blocks : No
Null samples used in CRC calculations : Yes
Used interface : Native Win32 interface for Win NT & 2000
Gap handling : Appended to previous track

Used output format : User Defined Encoder
Selected bitrate : 256 kBit/s
Quality : High
Add ID3 tag : No
Command line compressor : C:Archivos de programaExact Audio CopyFLACFLAC.EXE
Additional command line options : -8 -V -T "ARTIST=%artist%" -T "TITLE=%title%" -T "ALBUM=%albumtitle%" -T "DATE=%year%" -T "TRACKNUMBER=%tracknr%" -T "TOTALTRACKS=%numtracks%" -T "GENRE=%genre%" -T "ALBUMARTIST=%albumartist%" -T "ALBUM ARTIST=%albumartist%" -T "COMMENT=EAC Secure Mode, Test & Copy, AccurateRip, FLAC -8" %source%

TOC of the extracted CD

Track | Start | Length | Start sector | End sector
––––––––––––––––––––––––––––-
1 | 0:00.00 | 2:36.01 | 0 | 11700
2 | 2:36.01 | 1:41.32 | 11701 | 19307
3 | 4:17.33 | 2:44.57 | 19308 | 31664
4 | 7:02.15 | 3:01.55 | 31665 | 45294
5 | 10:03.70 | 2:02.24 | 45295 | 54468
6 | 12:06.19 | 2:28.32 | 54469 | 65600
7 | 14:34.51 | 2:31.69 | 65601 | 76994
8 | 17:06.45 | 2:38.27 | 76995 | 88871
9 | 19:44.72 | 3:19.74 | 88872 | 103870
10 | 23:04.71 | 1:21.54 | 103871 | 109999
11 | 24:26.50 | 4:55.59 | 110000 | 132183
12 | 29:22.34 | 2:44.15 | 132184 | 144498
13 | 32:06.49 | 2:05.05 | 144499 | 153878
14 | 34:11.54 | 2:16.33 | 153879 | 164111

Track 1

Filename D:flac rips1 – Muirsheen Durkin.wav

Pre-gap length 0:00:02.00

Peak level 83.0 %
Extraction speed 1.2 X
Track quality 99.9 %
Test CRC 0F9F583B
Copy CRC 0F9F583B
Track not present in AccurateRip database
Copy OK

Track 2

Filename D:flac rips2 – Poor Old Dicey Reilly.wav

Pre-gap length 0:00:01.67

Peak level 72.9 %
Extraction speed 1.4 X
Track quality 100.0 %
Test CRC 4FBA3685
Copy CRC 4FBA3685
Track not present in AccurateRip database
Copy OK

Track 3

Filename D:flac rips3 – A Nation Once Again.wav

Pre-gap length 0:00:01.25

Peak level 77.3 %
Extraction speed 1.7 X
Track quality 100.0 %
Test CRC 903C179A
Copy CRC 903C179A
Track not present in AccurateRip database
Copy OK

Track 4

Filename D:flac rips4 – Whiskey in the Jar.wav

Pre-gap length 0:00:02.16

Peak level 82.1 %
Extraction speed 1.8 X
Track quality 100.0 %
Test CRC D3749D5C
Copy CRC D3749D5C
Track not present in AccurateRip database
Copy OK

Track 5

Filename D:flac rips5 – The Old Triangle.wav

Pre-gap length 0:00:02.11

Peak level 92.5 %
Extraction speed 1.8 X
Track quality 100.0 %
Test CRC 5A0D6998
Copy CRC 5A0D6998
Track not present in AccurateRip database
Copy OK

Track 6

Filename D:flac rips6 – A Pub With No Beer.wav

Pre-gap length 0:00:02.47

Peak level 96.3 %
Extraction speed 1.9 X
Track quality 100.0 %
Test CRC 85156002
Copy CRC 85156002
Track not present in AccurateRip database
Copy OK

Track 7

Filename D:flac rips7 – Kelly the Boy from Killan.wav

Pre-gap length 0:00:02.58

Peak level 91.7 %
Extraction speed 2.0 X
Track quality 100.0 %
Test CRC FC8F44F6
Copy CRC FC8F44F6
Track not present in AccurateRip database
Copy OK

Track 8

Filename D:flac rips8 – Croppy Boy.wav

Pre-gap length 0:00:02.70

Peak level 88.6 %
Extraction speed 1.8 X
Track quality 99.9 %
Test CRC 4C549CCF
Copy CRC 4C549CCF
Track not present in AccurateRip database
Copy OK

Track 9

Filename D:flac rips9 – Sullivan’s John.wav

Pre-gap length 0:00:02.09

Peak level 85.4 %
Extraction speed 2.3 X
Track quality 100.0 %
Test CRC 31A3BDD3
Copy CRC 31A3BDD3
Track not present in AccurateRip database
Copy OK

Track 10

Filename D:flac rips10 – Come and Join the British Army.wav

Pre-gap length 0:00:02.17

Peak level 79.3 %
Extraction speed 1.9 X
Track quality 100.0 %
Test CRC A5377B42
Copy CRC A5377B42
Track not present in AccurateRip database
Copy OK

Track 11

Filename D:flac rips11 – The Bonnie Shoals of Herring.wav

Pre-gap length 0:00:02.33

Peak level 86.2 %
Extraction speed 2.4 X
Track quality 99.9 %
Test CRC 2200F205
Copy CRC 2200F205
Track not present in AccurateRip database
Copy OK

Track 12

Filename D:flac rips12 – Mormon Braes.wav

Pre-gap length 0:00:01.65

Peak level 84.1 %
Extraction speed 2.5 X
Track quality 100.0 %
Test CRC 7BE65469
Copy CRC 7BE65469
Track not present in AccurateRip database
Copy OK

Track 13

Filename D:flac rips13 – Drink It Up Men.wav

Pre-gap length 0:00:02.06

Peak level 98.6 %
Extraction speed 2.3 X
Track quality 100.0 %
Test CRC E1FFE220
Copy CRC E1FFE220
Track not present in AccurateRip database
Copy OK

Track 14

Filename D:flac rips14 – Maloney Wants a Drink.wav

Pre-gap length 0:00:01.65

Peak level 82.3 %
Extraction speed 2.1 X
Track quality 99.9 %
Test CRC 076FE736
Copy CRC 076FE736
Track not present in AccurateRip database
Copy OK

None of the tracks are present in the AccurateRip database

No errors occurred

End of status report

==== Log checksum B04D38E0F1F37FF6743B5E2C59DDFE80143E7948738A6F1559470A241F93FF5B ====

The Dubliners - More of the Hard Stuff (1967) {Major Minor-EMI rel 2012}

The Dubliners - More of the Hard Stuff (1967) {Major Minor-EMI rel 2012}

All thanks goes to the original releaser!

see also:
The Dubliners – The Dubliners With Luke Kelly (1964) {Castle Music CMRCD785 rel 2003}
The Dubliners – A Drop Of The Hard Stuff (1967) {Major Minor-EMI rel 2012}

NEXT -> more The Dubliners on the way…

===

The Dubliners – More of the Hard Stuff (1967) {Major Minor-EMI rel 2012} Download, Warez, DDL, Free, Full Album, Torrent, Legal.

Download


  • Recent Posts

  • Recent Tags