The Dubliners – Live In Carre, Amsterdam (1985) {Polydor 825 681-2}

Download
The Dubliners - Live In Carre, Amsterdam (1985) {Polydor 825 681-2}

The Dubliners – Live In Carre, Amsterdam (1985) {Polydor 825 681-2}
EAC rip (secure mode) | FLAC (tracks)+CUE+LOG -> 295 Mb | MP3 @320 -> 128 Mb
Full Artwork @ 600 dpi (jpg) -> 41 Mb | 5% repair rar
© 1985 Polydor | 825 681-2
Folk / Irish Folk / Traditional Irish Folk / Celtic / Drinking Songs

The recordings for this album were made on digital equipment by NOS radio in Holland for the AVRO radio programme ‘Folk live’ at the Carre Theatre in Amsterdam on October 6, 1983.

As founder member Luke Kelly tragically died only a few months after this concert those recordings are the very last Dubliners recordings with Luke. This album is as much a historical event as it is a musical highlight in the respectable career of one of Europe’s finest musical groups: The Dubliners.

The Dubliners - Live In Carre, Amsterdam (1985) {Polydor 825 681-2}

Personnel:
Ronnie Drew – vocals, guitar
Luke Kelly – vocals, banjo, spoons
John Sheahan – fiddle, tin whistle, vocals
Barney McKenna – banjo, mandolin, vocals
Sean Cannon – vocals, guitar

tracklist:
01 – Sweets of May
02 – Dicey Reilly
03 – Song for Ireland
04 – Building Up-Tearing England Down
05 – Dunphy’s Hornpipe-Leitrim Fancy-Down The Broom
06 – Dirty Old Town
07 – The Old Triangle
08 – Whiskey in the Jar
09 – Waterford Boys-Reels, The Humours of Scariff-The Flannel Jacket
10 – Galways Races
11 – The Prodigal Son
12 – The Sick Note
13 – The Wild Rover
14 – Seven Drunken Nights

EAC log
Exact Audio Copy V1.1 from 23. June 2015

EAC extraction logfile from 23. November 2015, 21:30

The Dubliners / Live in Carre: Amsterdam

Used drive : ASUS BW-12D1S-U Adapter: 1 ID: 1

Read mode : Secure
Utilize accurate stream : Yes
Defeat audio cache : Yes
Make use of C2 pointers : No

Read offset correction : 667
Overread into Lead-In and Lead-Out : No
Fill up missing offset samples with silence : Yes
Delete leading and trailing silent blocks : No
Null samples used in CRC calculations : Yes
Used interface : Native Win32 interface for Win NT & 2000
Gap handling : Appended to previous track

Used output format : User Defined Encoder
Selected bitrate : 1024 kBit/s
Quality : High
Add ID3 tag : No
Command line compressor : C:Program Files (x86)Kodeki za Glasboflac v1.3.1win64flac.exe
Additional command line options : -8 -V -T "ARTIST=%artist%" -T "TITLE=%title%" -T "ALBUM=%albumtitle%" -T "DATE=%year%" -T "TRACKNUMBER=%tracknr%" -T "TOTALTRACKS=%numtracks%" -T "GENRE=%genre%" -T "ALBUMARTIST=%albumartist%" -T "ALBUM ARTIST=%albumartist%" -T "COMMENT=EAC Secure Mode, Test & Copy, AccurateRip, FLAC -8" %source%

TOC of the extracted CD

Track | Start | Length | Start sector | End sector
––––––––––––––––––––––––––––-
1 | 0:00.33 | 2:43.05 | 33 | 12262
2 | 2:43.38 | 3:45.50 | 12263 | 29187
3 | 6:29.13 | 4:55.62 | 29188 | 51374
4 | 11:25.00 | 3:39.20 | 51375 | 67819
5 | 15:04.20 | 4:58.23 | 67820 | 90192
6 | 20:02.43 | 3:46.22 | 90193 | 107164
7 | 23:48.65 | 3:39.28 | 107165 | 123617
8 | 27:28.18 | 3:15.55 | 123618 | 138297
9 | 30:43.73 | 5:16.40 | 138298 | 162037
10 | 36:00.38 | 2:51.55 | 162038 | 174917
11 | 38:52.18 | 4:00.45 | 174918 | 192962
12 | 42:52.63 | 3:18.12 | 192963 | 207824
13 | 46:11.00 | 4:02.68 | 207825 | 226042
14 | 50:13.68 | 4:02.65 | 226043 | 244257

Track 1

Filename K:3. my rip in preparation3 – in treatmentThe Dubliners – Live in Carre (1985) [FLAC] {Polydor 825 681-2}1 – Sweets of May.wav

Pre-gap length 0:00:02.44

Peak level 79.4 %
Extraction speed 4.2 X
Track quality 100.0 %
Test CRC C94465DC
Copy CRC C94465DC
Accurately ripped (confidence 26) [1E3E582F] (AR v2)
Copy OK

Track 2

Filename K:3. my rip in preparation3 – in treatmentThe Dubliners – Live in Carre (1985) [FLAC] {Polydor 825 681-2}2 – Dicey Reilly.wav

Peak level 82.1 %
Extraction speed 4.8 X
Track quality 100.0 %
Test CRC FD02FD3C
Copy CRC FD02FD3C
Accurately ripped (confidence 27) [122CA6C4] (AR v2)
Copy OK

Track 3

Filename K:3. my rip in preparation3 – in treatmentThe Dubliners – Live in Carre (1985) [FLAC] {Polydor 825 681-2}3 – Song for Ireland.wav

Peak level 74.7 %
Extraction speed 4.9 X
Track quality 99.9 %
Test CRC 1E584D66
Copy CRC 1E584D66
Accurately ripped (confidence 27) [E0876955] (AR v2)
Copy OK

Track 4

Filename K:3. my rip in preparation3 – in treatmentThe Dubliners – Live in Carre (1985) [FLAC] {Polydor 825 681-2}4 – Building Up-Tearing England Down.wav

Peak level 65.4 %
Extraction speed 5.6 X
Track quality 100.0 %
Test CRC 2FE44725
Copy CRC 2FE44725
Accurately ripped (confidence 27) [A5AEA283] (AR v2)
Copy OK

Track 5

Filename K:3. my rip in preparation3 – in treatmentThe Dubliners – Live in Carre (1985) [FLAC] {Polydor 825 681-2}5 – Dunphy’s Hornpipe-Leitrim Fancy-Down The Broom.wav

Peak level 49.0 %
Extraction speed 6.2 X
Track quality 100.0 %
Test CRC 2AC52CC5
Copy CRC 2AC52CC5
Accurately ripped (confidence 26) [8D0AD198] (AR v2)
Copy OK

Track 6

Filename K:3. my rip in preparation3 – in treatmentThe Dubliners – Live in Carre (1985) [FLAC] {Polydor 825 681-2}6 – Dirty Old Town.wav

Peak level 80.0 %
Extraction speed 6.3 X
Track quality 100.0 %
Test CRC 90CCDBE7
Copy CRC 90CCDBE7
Accurately ripped (confidence 26) [7338CF52] (AR v2)
Copy OK

Track 7

Filename K:3. my rip in preparation3 – in treatmentThe Dubliners – Live in Carre (1985) [FLAC] {Polydor 825 681-2}7 – The Old Triangle.wav

Peak level 69.4 %
Extraction speed 6.6 X
Track quality 100.0 %
Test CRC 68294F86
Copy CRC 68294F86
Accurately ripped (confidence 27) [15186D97] (AR v2)
Copy OK

Track 8

Filename K:3. my rip in preparation3 – in treatmentThe Dubliners – Live in Carre (1985) [FLAC] {Polydor 825 681-2}8 – Whiskey in the Jar.wav

Peak level 71.6 %
Extraction speed 6.7 X
Track quality 100.0 %
Test CRC E99E9D8A
Copy CRC E99E9D8A
Accurately ripped (confidence 26) [E90F9C4C] (AR v2)
Copy OK

Track 9

Filename K:3. my rip in preparation3 – in treatmentThe Dubliners – Live in Carre (1985) [FLAC] {Polydor 825 681-2}9 – Waterford Boys-Reels, The Humours of Scariff-The Flannel Jacket.wav

Peak level 85.2 %
Extraction speed 7.4 X
Track quality 100.0 %
Test CRC 69AB9F63
Copy CRC 69AB9F63
Accurately ripped (confidence 25) [141EDCF3] (AR v2)
Copy OK

Track 10

Filename K:3. my rip in preparation3 – in treatmentThe Dubliners – Live in Carre (1985) [FLAC] {Polydor 825 681-2}10 – Galways Races.wav

Peak level 77.2 %
Extraction speed 7.1 X
Track quality 100.0 %
Test CRC 52091883
Copy CRC 52091883
Accurately ripped (confidence 26) [C505ABCE] (AR v2)
Copy OK

Track 11

Filename K:3. my rip in preparation3 – in treatmentThe Dubliners – Live in Carre (1985) [FLAC] {Polydor 825 681-2}11 – The Prodigal Son.wav

Peak level 43.5 %
Extraction speed 7.6 X
Track quality 100.0 %
Test CRC 95A59832
Copy CRC 95A59832
Accurately ripped (confidence 25) [FD60758D] (AR v2)
Copy OK

Track 12

Filename K:3. my rip in preparation3 – in treatmentThe Dubliners – Live in Carre (1985) [FLAC] {Polydor 825 681-2}12 – The Sick Note.wav

Peak level 64.5 %
Extraction speed 7.6 X
Track quality 100.0 %
Test CRC E6FD15ED
Copy CRC E6FD15ED
Accurately ripped (confidence 26) [4499BA56] (AR v2)
Copy OK

Track 13

Filename K:3. my rip in preparation3 – in treatmentThe Dubliners – Live in Carre (1985) [FLAC] {Polydor 825 681-2}13 – The Wild Rover.wav

Peak level 90.0 %
Extraction speed 7.9 X
Track quality 100.0 %
Test CRC C7B73C6E
Copy CRC C7B73C6E
Accurately ripped (confidence 27) [7393FDF2] (AR v2)
Copy OK

Track 14

Filename K:3. my rip in preparation3 – in treatmentThe Dubliners – Live in Carre (1985) [FLAC] {Polydor 825 681-2}14 – Seven Drunken Nights.wav

Peak level 89.6 %
Extraction speed 8.1 X
Track quality 100.0 %
Test CRC DC147068
Copy CRC DC147068
Accurately ripped (confidence 25) [82B7583A] (AR v2)
Copy OK

All tracks accurately ripped

No errors occurred

End of status report

–– CUETools DB Plugin V2.1.6

[CTDB TOCID: MmQdGoVSZCQU619WMxxb1x_9ILM-] found
Submit result: already submitted
Track | CTDB Status
1 | (21/22) Accurately ripped
2 | (22/22) Accurately ripped
3 | (21/22) Accurately ripped
4 | (21/22) Accurately ripped
5 | (22/22) Accurately ripped
6 | (22/22) Accurately ripped
7 | (21/22) Accurately ripped
8 | (22/22) Accurately ripped
9 | (20/22) Accurately ripped
10 | (21/22) Accurately ripped
11 | (21/22) Accurately ripped
12 | (21/22) Accurately ripped
13 | (21/22) Accurately ripped
14 | (21/22) Accurately ripped

==== Log checksum DBE0BC430EBB94792628367D76526633C522A2D56A4021C8A0B9E006A8ED10CC ====

The Dubliners - Live In Carre, Amsterdam (1985) {Polydor 825 681-2}

The Dubliners - Live In Carre, Amsterdam (1985) {Polydor 825 681-2}

All thanks goes to the original releaser!

see also:
The Dubliners – The Dubliners With Luke Kelly (1964) {Castle Music CMRCD785 rel 2003}
The Dubliners – A Drop Of The Hard Stuff (1967) {Major Minor-EMI rel 2012}
The Dubliners – More of the Hard Stuff (1967) {Major Minor-EMI rel 2012}
The Dubliners – Live at the Royal Albert Hall (1969) {EMI Music Ireland CDRAH I rel 2006}

NEXT -> more The Dubliners on the way…

===

The Dubliners – Live In Carre, Amsterdam (1985) {Polydor 825 681-2} Download, Warez, DDL, Free, Full Album, Torrent, Legal.

Download