The Doubling Riders – 2 Albums (1989-1991)

Download
The Doubling Riders - 2 Albums (1989-1991)

The Doubling Riders – 2 Albums (1989-1991)
EAC Rip | FLAC (image+.cue+log) – 580 MB | MP3 CBR 320 kbps (LAME 3.93) – 303 MB | Covers – 54 MB
Genre: Electronic, New Age, World | RAR 3% Rec. | Label: Supporti Fonografici, Il Museo Immaginario

Started as a project between Francesco Paladino and Pier Luigi Andreoni, The Doubling Riders quickly grew into a collection of sounds that ranged between new age, folk, electronic music and balls to the wall experimentation. "Garama" was originally released on Il Museo Immaginario in 1991. The Doubling Riders make trippy music, their compositions oscillate between a soundtrack to a meditation session and a blissful look at a potentially never-ending painting. This is a wonderfully evocative album of old school , synth infused ethno-ambiance of the highest caliber. A concept album of sorts, it references the ancient Saharan kingdom of the Garamantes, who lived in what is now central Libya. Eerie, melodic, mysterious…

The Doubling Riders - 2 Albums (1989-1991)

The Doubling Riders – World! (1989)
EAC Rip | FLAC (image+.cue+log) – 262 MB | MP3 CBR 320 kbps (LAME 3.93) – 133 MB | Covers – 19 MB
Genre: Electronic, New Age, World | RAR 3% Rec. | Label: Supporti Fonografici (SFCD 1001)

Tracklist:
01. Ghost Waltz
02. Rosas
03. Vietcong Details
04. Don’t Leave Fingerprints
05. Gulhane Park
06. Belcher Beach
07. Starvin’ In Bucarest
08. Nu Indize
09. Alla La Ke
10. Tiddley Winks 1
11. Tiddley Winks 2
12. Tiddley Winks 3

Total time: 56:24

EAC log
Exact Audio Copy V0.99 prebeta 4 from 23. January 2008

EAC extraction logfile from 13. November 2010, 16:11

The Doubling Riders / World!

Used drive : PLEXTOR DVDR PX-870A Adapter: 0 ID: 0

Read mode : Secure
Utilize accurate stream : Yes
Defeat audio cache : Yes
Make use of C2 pointers : No

Read offset correction : 6
Overread into Lead-In and Lead-Out : No
Fill up missing offset samples with silence : Yes
Delete leading and trailing silent blocks : No
Null samples used in CRC calculations : Yes
Used interface : Installed external ASPI interface

Used output format : User Defined Encoder
Selected bitrate : 320 kBit/s
Quality : High
Add ID3 tag : No
Command line compressor : C:Program FilesFLACflac.exe
Additional command line options : -T "DATE=%y" -T "GENRE=%m" -8 -V %s

TOC of the extracted CD

Track | Start | Length | Start sector | End sector
––––––––––––––––––––––––––––-
1 | 0:00.00 | 2:56.27 | 0 | 13226
2 | 2:56.27 | 4:32.20 | 13227 | 33646
3 | 7:28.47 | 4:51.10 | 33647 | 55481
4 | 12:19.57 | 4:52.68 | 55482 | 77449
5 | 17:12.50 | 6:04.25 | 77450 | 104774
6 | 23:17.00 | 4:00.15 | 104775 | 122789
7 | 27:17.15 | 6:04.17 | 122790 | 150106
8 | 33:21.32 | 4:37.05 | 150107 | 170886
9 | 37:58.37 | 5:28.08 | 170887 | 195494
10 | 43:26.45 | 4:29.27 | 195495 | 215696
11 | 47:55.72 | 2:47.35 | 215697 | 228256
12 | 50:43.32 | 5:40.43 | 228257 | 253799

Range status and errors

Selected range

Filename D:DownloadstorrentsThe Doubling Riders – World! (1989)The Doubling Riders – World!.wav

Peak level 100.0 %
Range quality 100.0 %
Test CRC FC3CA736
Copy CRC FC3CA736
Copy OK

No errors occurred

AccurateRip summary

Track 1 not present in database
Track 2 not present in database
Track 3 not present in database
Track 4 not present in database
Track 5 not present in database
Track 6 not present in database
Track 7 not present in database
Track 8 not present in database
Track 9 not present in database
Track 10 not present in database
Track 11 not present in database
Track 12 not present in database

None of the tracks are present in the AccurateRip database

End of status report

CUETools log
[CUETools log; Date: 21.12.2016 2:07:12; Version: 2.1.4]
[CTDB TOCID: tS0FMSvz_O1pgPSWXkLH1QEtXL4-] disk not present in database.
[AccurateRip ID: 0018be6e-00e9e99e-9d0d380c] disk not present in database.

Track Peak [ CRC32 ] [W/O NULL] [ LOG ]
– 100,0 [FC3CA736] [4AE53912] CRC32
01 38,0 [C953AFDE] [8D4426D5]
02 58,2 [0A1CB5D7] [A249A766]
03 51,8 [F403DC12] [E255A6EF]
04 80,2 [166CD965] [9A3A7CE2]
05 94,7 [70FB86B4] [41F588A4]
06 32,7 [0E16D204] [D0F00D00]
07 41,0 [5EAB562F] [CE3AA05D]
08 100,0 [494EF2EF] [D246624C]
09 22,0 [30C0D41A] [BBDB717E]
10 58,0 [2DF117E3] [9CC43BFF]
11 77,2 [F3AC93F2] [9608F9DD]
12 75,5 [A493314D] [57D4D113]

The Doubling Riders - 2 Albums (1989-1991)

The Doubling Riders – Garama (1991)
EAC Rip | FLAC (image+.cue+log) – 318 MB | MP3 CBR 320 kbps (LAME 3.93) – 170 MB | Covers – 35 MB
Genre: Electronic, New Age, World | RAR 3% Rec. | Label: Il Museo Immaginario (MIMM CD050)

Tracklist:
01. Garama
02. La Pista Del Kidal
03. Ultimi Porti
04. Triboli Gao
05. Plus Nubiae
06. Oltre Cydamus
07. Djerat
08. Kaossen
09. I Graffiti Di Orione E Delle Pleiadi (Dedicato A Henry Lothe)

Total time: 01:12:10

EAC log
Exact Audio Copy V0.99 prebeta 4 from 23. January 2008

EAC extraction logfile from 1. April 2010, 22:19

The Doubling Riders / Garama

Used drive : Optiarc DVD+-RW AD-7200S Adapter: 1 ID: 1

Read mode : Secure
Utilize accurate stream : Yes
Defeat audio cache : Yes
Make use of C2 pointers : No

Read offset correction : 48
Overread into Lead-In and Lead-Out : No
Fill up missing offset samples with silence : Yes
Delete leading and trailing silent blocks : No
Null samples used in CRC calculations : Yes
Used interface : Installed external ASPI interface

Used output format : User Defined Encoder
Selected bitrate : 320 kBit/s
Quality : High
Add ID3 tag : No
Command line compressor : C:Program FilesFLACflac.exe
Additional command line options : -T "DATE=%y" -T "GENRE=%m" -8 -V %s

TOC of the extracted CD

Track | Start | Length | Start sector | End sector
––––––––––––––––––––––––––––-
1 | 0:00.32 | 5:48.25 | 32 | 26156
2 | 5:48.57 | 6:13.35 | 26157 | 54166
3 | 12:02.17 | 5:28.03 | 54167 | 78769
4 | 17:30.20 | 4:47.15 | 78770 | 100309
5 | 22:17.35 | 7:24.42 | 100310 | 133651
6 | 29:42.02 | 6:20.53 | 133652 | 162204
7 | 36:02.55 | 5:34.27 | 162205 | 187281
8 | 41:37.07 | 6:13.20 | 187282 | 215276
9 | 47:50.27 | 24:20.05 | 215277 | 324781

Range status and errors

Selected range

Filename D:DownloadstorrentsThe Doubling Riders – Garama (1991)The Doubling Riders – Garama.wav

Peak level 93.4 %
Range quality 100.0 %
Copy CRC D0F75FB6
Copy OK

No errors occurred

AccurateRip summary

Track 1 not present in database
Track 2 not present in database
Track 3 not present in database
Track 4 not present in database
Track 5 not present in database
Track 6 not present in database
Track 7 not present in database
Track 8 not present in database
Track 9 not present in database

None of the tracks are present in the AccurateRip database

End of status report

CUETools log
[CUETools log; Date: 20.12.2016 22:53:08; Version: 2.1.4]
Pregap length 00:00:32.
[CTDB TOCID: PXPvPBa44AWe0yuefiqKJDtM2IM-] found.
Track | CTDB Status
1 | (1/1) Accurately ripped
2 | (1/1) Accurately ripped
3 | (1/1) Accurately ripped
4 | (1/1) Accurately ripped
5 | (1/1) Accurately ripped
6 | (1/1) Accurately ripped
7 | (1/1) Accurately ripped
8 | (1/1) Accurately ripped
9 | (1/1) Accurately ripped
[AccurateRip ID: 0013924a-009348a9-7b10ea09] disk not present in database.

Track Peak [ CRC32 ] [W/O NULL] [ LOG ]
– 93,4 [D0F75FB6] [2F5D623A] CRC32
01 93,1 [64C082AD] [2ACD9737]
02 87,0 [34C7098D] [DD18B217]
03 93,4 [4E282CEB] [493633C2]
04 86,9 [BBFECBBB] [EADBAE35]
05 89,1 [CD2BEDDC] [7F2E3834]
06 92,7 [BFC98159] [F3223765]
07 84,6 [77976E81] [88B2DAB3]
08 87,1 [A0E78890] [83D1D053]
09 89,7 [B19BCAD0] [B7B29821]

Thanks to ainm

See also:
Alesini & Andreoni – Marco Polo Vol. I-II (1995-1998)

Welcome to My Blog!

The Doubling Riders – 2 Albums (1989-1991) Download, Warez, DDL, Free, Full Album, Torrent, Legal.

Download