The Doobie Brothers – What Were Once Vices Are Now Habits (1974) {1987, Reissue}

Download
The Doobie Brothers - What Were Once Vices Are Now Habits (1974) {1987, Reissue}

The Doobie Brothers – What Were Once Vices Are Now Habits (1974) {1987, Reissue}
EAC Rip | FLAC (Img) + Cue + Log ~ 275 Mb | MP3 CBR320 ~ 108 Mb
Scans (JPG, 600 dpi) ~ 64 Mb | RAR 5% Recovery
Folk Rock, Southern Rock, Blues Rock, Soft Rock | Warner Bros. Records #7599-27280-2

The Doobies team up with the Memphis Horns for an even more Southern-flavored album than usual, although also a more uneven one. By this time, Tom Johnston, Patrick Simmons, and company had pretty well inherited the mantle and the core (and then some) of the audience left behind by Creedence Clearwater Revival and John Fogerty, with Johnston songs like "Pursuit on 53rd Street," "Down in the Track," and "Road Angel" recalling pieces like "Travelin’ Band," while Simmons’ "Black Water" (their first number one hit) evoked the softer side of the "swamp rock" popularized by CCR. Actually, in some respects, given the range of instruments employed here, including an autoharp (courtesy of Arlo Guthrie) and viola, the songs on the original LP’s first side suffer somewhat from a sameness that makes What Were Once Vices Are Now Habits a little less interesting than the albums that preceded it. The original side two had a lot more variety, which is as good as any full album the band ever recorded: Simmons’ "Tell Me What You Want (And I’ll Give You What You Need)" and Johnston’s "Another Park, Another Sunday," which both outdo the Eagles and Poco at their respective country-rock games (and keep a certain soulful edge, too), Simmons’ lyrical, ethereal, slightly spacy "Daughters of the Sea," and the very spacy, shimmering instrumental "Flying Cloud" (written by bassist Tiran Porter). In all, despite the weakness of its original first side, it’s got a lot more to offer than the single hit, and has at least six numbers (out of 12) that rate with the better album tracks the group has ever done.

~ Bruce Eder, All Music
Official Website | Wiki | Discogs | All Music

***************

The Doobie Brothers - What Were Once Vices Are Now Habits (1974) {1987, Reissue}

Track List:

01. Song To See You Through [4:08]
02. Spirit [3:16]
03. Pursuit On 53rd St. [2:36]
04. Black Water [4:21]
05. Eyes Of Silver [3:01]
06. Road Angel [4:48]
07. You Just Can’t Stop It [3:31]
08. Tell Me What You Want (And I’ll Give You What You Need) [3:55]
09. Down In The Track [4:18]
10. Another Park, Another Sunday [4:31]
11. Daughters Of The Sea [4:35]
12. Flying Cloud [2:00]

EAC Log
Exact Audio Copy V1.3 from 2. September 2016

EAC extraction logfile from 29. January 2017, 19:34

The Doobie Brothers / What Were Once Vices Are Now Habits

Used drive : PIONEER BD-RW BDR-206D Adapter: 1 ID: 0

Read mode : Secure
Utilize accurate stream : Yes
Defeat audio cache : Yes
Make use of C2 pointers : No

Read offset correction : 667
Overread into Lead-In and Lead-Out : No
Fill up missing offset samples with silence : Yes
Delete leading and trailing silent blocks : No
Null samples used in CRC calculations : Yes
Used interface : Native Win32 interface for Win NT & 2000

Used output format : User Defined Encoder
Selected bitrate : 896 kBit/s
Quality : High
Add ID3 tag : No
Command line compressor : C:Program FilesExact Audio CopyFlacflac.exe
Additional command line options : -V -8 -T "Date=%year%" -T "Genre=%genre%" %source%

TOC of the extracted CD

Track | Start | Length | Start sector | End sector
––––––––––––––––––––––––––––-
1 | 0:00.00 | 4:08.20 | 0 | 18619
2 | 4:08.20 | 3:16.02 | 18620 | 33321
3 | 7:24.22 | 2:35.43 | 33322 | 44989
4 | 9:59.65 | 4:21.02 | 44990 | 64566
5 | 14:20.67 | 3:00.40 | 64567 | 78106
6 | 17:21.32 | 4:48.10 | 78107 | 99716
7 | 22:09.42 | 3:31.13 | 99717 | 115554
8 | 25:40.55 | 3:55.37 | 115555 | 133216
9 | 29:36.17 | 4:17.40 | 133217 | 152531
10 | 33:53.57 | 4:31.30 | 152532 | 172886
11 | 38:25.12 | 4:34.58 | 172887 | 193494
12 | 42:59.70 | 1:59.67 | 193495 | 202486

Range status and errors

Selected range

Filename E:The Doobie Brothers – What Were Once Vices Are Now Habits.wav

Peak level 88.4 %
Extraction speed 6.7 X
Range quality 99.9 %
Test CRC A930B0FD
Copy CRC A930B0FD
Copy OK

No errors occurred

AccurateRip summary

Track 1 accurately ripped (confidence 3) [C42FCFAE] (AR v2)
Track 2 accurately ripped (confidence 3) [00546131] (AR v2)
Track 3 accurately ripped (confidence 3) [F7F91190] (AR v2)
Track 4 accurately ripped (confidence 3) [B16731DB] (AR v2)
Track 5 accurately ripped (confidence 3) [33A9FB49] (AR v2)
Track 6 accurately ripped (confidence 3) [B9BF3236] (AR v2)
Track 7 accurately ripped (confidence 3) [992F0EE2] (AR v2)
Track 8 accurately ripped (confidence 3) [7E053CA4] (AR v2)
Track 9 accurately ripped (confidence 3) [B3C3F401] (AR v2)
Track 10 accurately ripped (confidence 3) [BA4EE844] (AR v2)
Track 11 accurately ripped (confidence 3) [6EEAED89] (AR v2)
Track 12 accurately ripped (confidence 3) [5242460C] (AR v2)

All tracks accurately ripped

End of status report

==== Log checksum 95116735FD5E472EB538D4D7F3E36F2108309CF02AE785C253206B8EDBA15F0C ====

DR Log
foobar2000 1.2.6 / Dynamic Range Meter 1.1.1
log date: 2017-02-06 21:45:18

––––––––––––––––––––––––––––––––––––––––
Analyzed: The Doobie Brothers / What Were Once Vices Are Now Habits
––––––––––––––––––––––––––––––––––––––––

DR Peak RMS Duration Track
––––––––––––––––––––––––––––––––––––––––
DR13 -1.63 dB -17.69 dB 4:08 01-Song To See You Through
DR14 -2.16 dB -18.95 dB 3:16 02-Spirit
DR12 -2.67 dB -16.61 dB 2:36 03-Pursuit On 53rd St.
DR13 -2.42 dB -19.48 dB 4:21 04-Black Water
DR14 -1.32 dB -17.78 dB 3:01 05-Eyes Of Silver
DR13 -1.07 dB -16.50 dB 4:48 06-Road Angel
DR13 -2.04 dB -17.14 dB 3:31 07-You Just Can’t Stop It
DR14 -1.91 dB -18.98 dB 3:55 08-Tell Me What You Want (And I’ll Give You What You Need)
DR14 -1.35 dB -16.79 dB 4:18 09-Down In The Track
DR13 -1.23 dB -17.93 dB 4:31 10-Another Park, Another Sunday
DR13 -2.19 dB -18.62 dB 4:35 11-Daughters Of The Sea
DR13 -4.96 dB -22.05 dB 2:00 12-Flying Cloud
––––––––––––––––––––––––––––––––––––––––

Number of tracks: 12
Official DR value: DR13

Samplerate: 44100 Hz
Channels: 2
Bits per sample: 16
Bitrate: 813 kbps
Codec: FLAC
================================================================================

CUETools Log
[CUETools log; Date: 06.02.2017 21:45:46; Version: 2.1.5]
[CTDB TOCID: kJqofJoNGH5Q05blyV7iTUakgYM-] found.
Track | CTDB Status
1 | (45/46) Accurately ripped
2 | (46/46) Accurately ripped
3 | (46/46) Accurately ripped
4 | (46/46) Accurately ripped
5 | (46/46) Accurately ripped
6 | (46/46) Accurately ripped
7 | (46/46) Accurately ripped
8 | (46/46) Accurately ripped
9 | (46/46) Accurately ripped
10 | (46/46) Accurately ripped
11 | (46/46) Accurately ripped
12 | (45/46) Accurately ripped
[AccurateRip ID: 0013fb38-00bbdb6c-870a8b0c] found.
Track [ CRC | V2 ] Status
01 [60621873|c42fcfae] (03+03/52) Accurately ripped
02 [4cb292a7|00546131] (03+03/53) Accurately ripped
03 [ab6efc48|f7f91190] (03+03/53) Accurately ripped
04 [f5478cfe|b16731db] (03+03/52) Accurately ripped
05 [27ec033d|33a9fb49] (03+03/52) Accurately ripped
06 [ed978230|b9bf3236] (03+03/51) Accurately ripped
07 [f0e45f02|992f0ee2] (03+03/52) Accurately ripped
08 [d0a29c93|7e053ca4] (03+03/51) Accurately ripped
09 [a6cfccef|b3c3f401] (03+03/52) Accurately ripped
10 [3c0231ce|ba4ee844] (03+03/49) Accurately ripped
11 [0c78a224|6eeaed89] (03+03/51) Accurately ripped
12 [74c8ea6a|5242460c] (03+03/51) Accurately ripped
Offsetted by 527:
01 [33e6cf3b] (08/52) Accurately ripped
02 [3e2896c9] (08/53) Accurately ripped
03 [739c3d86] (08/53) Accurately ripped
04 [7a7a6f73] (08/52) Accurately ripped
05 [e2ae907e] (08/52) Accurately ripped
06 [3f27f875] (07/51) Accurately ripped
07 [a8ad62cf] (07/52) Accurately ripped
08 [5dce533c] (07/51) Accurately ripped
09 [65756ce2] (07/52) Accurately ripped
10 [4394531d] (06/49) Accurately ripped
11 [c7daca9c] (06/51) Accurately ripped
12 [174aae7e] (07/51) Accurately ripped
Offsetted by 664:
01 [d0e655b3] (06/52) Accurately ripped
02 [fe24c777] (06/53) Accurately ripped
03 [a89ec678] (06/53) Accurately ripped
04 [29fa4e06] (06/52) Accurately ripped
05 [e60e5125] (06/52) Accurately ripped
06 [105a27b8] (06/51) Accurately ripped
07 [34c01fca] (06/52) Accurately ripped
08 [3c8de8bb] (06/51) Accurately ripped
09 [8221b227] (06/52) Accurately ripped
10 [17664666] (06/49) Accurately ripped
11 [e20a8d65] (06/51) Accurately ripped
12 [9c8acb2a] (06/51) Accurately ripped
Offsetted by 6:
01 [d76034c3] (00/52) No match (V2 was not tested)
02 [e31ec91b] (00/53) No match (V2 was not tested)
03 [8a406194] (00/53) No match (V2 was not tested)
04 [e0efb860] (00/52) No match (V2 was not tested)
05 [1afd4957] (00/52) No match (V2 was not tested)
06 [a0cc28b2] (00/51) No match (V2 was not tested)
07 [ca2e1154] (00/52) No match (V2 was not tested)
08 [cb71133d] (00/51) No match (V2 was not tested)
09 [23655c1d] (00/52) No match (V2 was not tested)
10 [507f3e54] (00/49) No match (V2 was not tested)
11 [dd76cede] (00/51) No match (V2 was not tested)
12 [b1786c46] (00/51) No match (V2 was not tested)

Track Peak [ CRC32 ] [W/O NULL] [ LOG ]
– 88,4 [A930B0FD] [457A7131] CRC32
01 82,9 [B86A8C3D] [AF30498C]
02 77,9 [4B906E54] [9BDE63B0]
03 73,5 [B907B1A1] [E4BF1B9A]
04 75,7 [80FF6805] [5274D794]
05 85,9 [5DFAB9ED] [16930790]
06 88,4 [1A96E1E0] [13A1090C]
07 79,0 [4077B70D] [2AD187CE]
08 80,2 [DE5E647D] [7317417A]
09 85,5 [014A3921] [5DDECA66]
10 86,7 [656370B6] [6285150E]
11 77,6 [06F07F85] [7F6596D3]
12 56,4 [44FFDE59] [77B0546C]

The Doobie Brothers - What Were Once Vices Are Now Habits (1974) {1987, Reissue}

The Doobie Brothers - What Were Once Vices Are Now Habits (1974) {1987, Reissue}

See also:
The Doobie Brothers – Long Train Runnin’ 1970-2000 (1999, 4CD Box Set)
The Doobie Brothers – Sibling Rivalry (2000)

All thanks go to BOLiK_Ltd

> Visit my blog <

The Doobie Brothers – What Were Once Vices Are Now Habits (1974) {1987, Reissue} Download, Warez, DDL, Free, Full Album, Torrent, Legal.

Download