The Cosmic Jokers – Gilles Zeitschiff (1974/1994)

Download
The Cosmic Jokers - Gilles Zeitschiff (1974/1994)

The Cosmic Jokers – Gilles Zeitschiff (1974/1994)
EAC Rip | FLAC (tracks+log+.cue) | 00:47:11 | 262 Mb
Krautrock, Ambient, Progressive Rock | Label: Spalax Music,

The Cosmic Jokers were a German krautrock supergroup, and a primary example of space rock. This release is a French reissue of the prog-rock act’s 1974 album. 14 tracks including, ‘Tim Bleibt Bei Uns’, ‘Downtown’ & ‘Lord Krishna’.

Yet, another 1974 title of the Cosmic Jokers. Although it isn’t quite AS good as either the self-titled Cosmic Jokers effort or the ‘Galactic Supermarket’ (see my reviews of both), it’s still decent.Obviously not a krautrock classic, but most fans of such should get something out of this CD reissue. Tracks I dug the most were "Cosmic Courier Bon Chance", the eleven-minute adventurous "Electronic Rock Zeitalter" and "De Magier". Line-up: Klaus Schulze – electronics, Gille Lettman – vocals, Manuel Gottsching – guitar, Jurgen Dollase – keyboards, Dieter Dierks – bass and Harold Grosskopf – drums. Good to take out for a spin occasionally.

Tracklist:
1. Tim Bleibt Bei Uns (7:06)
2. Downtown (2:42)
3. Lord Krishna (1:23)
4. Power Drive (1:40)
5. Bei Tim (1:50)
6. Right Hand Lover (1:33)
7. Cosmic Courier Bon Chance (2:55)
8. Swiss High Lands (1:19)
9. Der Magier (2:45)
10. The Electronic Scene (3:38)
11. Electronic Rock Zeitalter (11:09)
12. So Beautiful (3:51)
13. The Queen of Sunshine (3:22)
14. Meine Kosmische Musik (1:46)

EAC
Exact Audio Copy V1.0 beta 3 from 29. August 2011

EAC extraction logfile from 17. January 2012, 15:01

The Cosmic Jokers / Gilles Zeitschiff

Used drive : Optiarc DVD RW AD-7700S Adapter: 0 ID: 1

Read mode : Secure
Utilize accurate stream : Yes
Defeat audio cache : Yes
Make use of C2 pointers : No

Read offset correction : 48
Overread into Lead-In and Lead-Out : No
Fill up missing offset samples with silence : Yes
Delete leading and trailing silent blocks : No
Null samples used in CRC calculations : Yes
Used interface : Native Win32 interface for Win NT & 2000
Gap handling : Appended to previous track

Used output format : User Defined Encoder
Selected bitrate : 1024 kBit/s
Quality : High
Add ID3 tag : No
Command line compressor : C:Program Files (x86)Exact Audio CopyFLACFLAC.EXE
Additional command line options : -8 -V -T "ARTIST=%artist%" -T "TITLE=%title%" -T "ALBUM=%albumtitle%" -T "DATE=%year%" -T "TRACKNUMBER=%tracknr%" -T "GENRE=%genre%" -T "PERFORMER=%albuminterpret%" -T "COMPOSER=%composer%" %haslyrics%–tag-from-file=LYRICS="%lyricsfile%"%haslyrics% -T "ALBUMARTIST=%albumartist%" -T "DISCNUMBER=%cdnumber%" -T "TOTALDISCS=%totalcds%" -T "TOTALTRACKS=%numtracks%" -T "COMMENT=%comment%" %source% -o %dest%

TOC of the extracted CD

Track | Start | Length | Start sector | End sector
––––––––––––––––––––––––––––-
1 | 0:00.32 | 7:06.25 | 32 | 32006
2 | 7:06.57 | 2:42.35 | 32007 | 44191
3 | 9:49.17 | 1:23.05 | 44192 | 50421
4 | 11:12.22 | 1:40.73 | 50422 | 57994
5 | 12:53.20 | 1:50.57 | 57995 | 66301
6 | 14:44.02 | 1:33.68 | 66302 | 73344
7 | 16:17.70 | 3:00.65 | 73345 | 86909
8 | 19:18.60 | 1:19.55 | 86910 | 92889
9 | 20:38.40 | 2:45.02 | 92890 | 105266
10 | 23:23.42 | 3:38.20 | 105267 | 121636
11 | 27:01.62 | 11:09.03 | 121637 | 171814
12 | 38:10.65 | 3:51.30 | 171815 | 189169
13 | 42:02.20 | 3:22.35 | 189170 | 204354
14 | 45:24.55 | 1:46.72 | 204355 | 212376

Track 1

Filename C:EACRipsThe Cosmic Jokers 1974 Gilles Zeitschiff1 – Tim Bleibt Bei Uns.wav

Pre-gap length 0:00:02.42

Peak level 99.5 %
Extraction speed 2.2 X
Track quality 99.9 %
Test CRC 7CAA14D2
Copy CRC 7CAA14D2
Cannot be verified as accurate (confidence 2) [344A0125], AccurateRip returned [0A56D32D] (AR v2)
Copy OK

Track 2

Filename C:EACRipsThe Cosmic Jokers 1974 Gilles Zeitschiff2 – Downtown.wav

Peak level 89.0 %
Extraction speed 3.1 X
Track quality 100.0 %
Test CRC 979B28DE
Copy CRC 979B28DE
Accurately ripped (confidence 2) [9B382331] (AR v1)
Copy OK

Track 3

Filename C:EACRipsThe Cosmic Jokers 1974 Gilles Zeitschiff3 – Lord Krishna.wav

Peak level 71.4 %
Extraction speed 2.7 X
Track quality 100.0 %
Test CRC EBF08F60
Copy CRC EBF08F60
Accurately ripped (confidence 2) [7360F19C] (AR v1)
Copy OK

Track 4

Filename C:EACRipsThe Cosmic Jokers 1974 Gilles Zeitschiff4 – Power Drive.wav

Peak level 81.2 %
Extraction speed 2.9 X
Track quality 100.0 %
Test CRC A3A80AB1
Copy CRC A3A80AB1
Accurately ripped (confidence 2) [ED0C00BA] (AR v1)
Copy OK

Track 5

Filename C:EACRipsThe Cosmic Jokers 1974 Gilles Zeitschiff5 – Bei Tim.wav

Peak level 69.9 %
Extraction speed 3.1 X
Track quality 100.0 %
Test CRC D55F8868
Copy CRC D55F8868
Accurately ripped (confidence 2) [A243628D] (AR v1)
Copy OK

Track 6

Filename C:EACRipsThe Cosmic Jokers 1974 Gilles Zeitschiff6 – Right Hand Lover.wav

Peak level 74.9 %
Extraction speed 2.1 X
Track quality 99.8 %
Test CRC D2199B49
Copy CRC D2199B49
Accurately ripped (confidence 2) [05364458] (AR v1)
Copy OK

Track 7

Filename C:EACRipsThe Cosmic Jokers 1974 Gilles Zeitschiff7 – Cosmic Courier Bon Chance.wav

Peak level 57.5 %
Extraction speed 3.6 X
Track quality 100.0 %
Test CRC 715A8B9B
Copy CRC 715A8B9B
Accurately ripped (confidence 2) [6D8A7D05] (AR v1)
Copy OK

Track 8

Filename C:EACRipsThe Cosmic Jokers 1974 Gilles Zeitschiff8 – Swiss-High-Lands.wav

Pre-gap length 0:00:04.90

Peak level 65.2 %
Extraction speed 3.1 X
Track quality 100.0 %
Test CRC 90473CC1
Copy CRC 90473CC1
Accurately ripped (confidence 2) [BEA3B2DA] (AR v1)
Copy OK

Track 9

Filename C:EACRipsThe Cosmic Jokers 1974 Gilles Zeitschiff9 – Der Magier.wav

Peak level 78.2 %
Extraction speed 3.0 X
Track quality 99.9 %
Test CRC FA9FB534
Copy CRC FA9FB534
Accurately ripped (confidence 2) [3DAD2D3F] (AR v1)
Copy OK

Track 10

Filename C:EACRipsThe Cosmic Jokers 1974 Gilles Zeitschiff10 – The Electronic Scene.wav

Peak level 83.6 %
Extraction speed 4.2 X
Track quality 100.0 %
Test CRC F811746D
Copy CRC F811746D
Accurately ripped (confidence 2) [05269BD1] (AR v1)
Copy OK

Track 11

Filename C:EACRipsThe Cosmic Jokers 1974 Gilles Zeitschiff11 – Electronic Rock Zeitalter.wav

Peak level 83.1 %
Extraction speed 5.0 X
Track quality 100.0 %
Test CRC 55A1DAAA
Copy CRC 55A1DAAA
Accurately ripped (confidence 2) [4BDD891D] (AR v1)
Copy OK

Track 12

Filename C:EACRipsThe Cosmic Jokers 1974 Gilles Zeitschiff12 – So Beautiful.wav

Peak level 65.4 %
Extraction speed 4.1 X
Track quality 99.9 %
Test CRC 96A1E312
Copy CRC 96A1E312
Accurately ripped (confidence 2) [1CDC95D6] (AR v1)
Copy OK

Track 13

Filename C:EACRipsThe Cosmic Jokers 1974 Gilles Zeitschiff13 – The Queen Of Sunshine.wav

Peak level 81.1 %
Extraction speed 4.9 X
Track quality 100.0 %
Test CRC 6AE7E741
Copy CRC 6AE7E741
Accurately ripped (confidence 2) [EF3A54DB] (AR v1)
Copy OK

Track 14

Filename C:EACRipsThe Cosmic Jokers 1974 Gilles Zeitschiff14 – Meine Kosmische Musik.wav

Peak level 77.2 %
Extraction speed 4.4 X
Track quality 100.0 %
Test CRC 0733EE73
Copy CRC 0733EE73
Accurately ripped (confidence 2) [51AD3903] (AR v1)
Copy OK

13 track(s) accurately ripped
1 track(s) could not be verified as accurate

Some tracks could not be verified as accurate

No errors occurred

End of status report

==== Log checksum 80253CF7D8DEDF40B1CE2066B1FE9DDD5B7F9AE0468DFC1262F6B9050A6F8EED ====

––––––––––––––––––––––––––––––

Exact Audio Copy V1.0 beta 3 from 29. August 2011

EAC extraction logfile from 17. January 2012, 15:02

The Cosmic Jokers / Gilles Zeitschiff

Used drive : Optiarc DVD RW AD-7700S Adapter: 0 ID: 1

Read mode : Secure
Utilize accurate stream : Yes
Defeat audio cache : Yes
Make use of C2 pointers : No

Read offset correction : 48
Overread into Lead-In and Lead-Out : No
Fill up missing offset samples with silence : Yes
Delete leading and trailing silent blocks : No
Null samples used in CRC calculations : Yes
Used interface : Native Win32 interface for Win NT & 2000
Gap handling : Appended to previous track

Used output format : User Defined Encoder
Selected bitrate : 1024 kBit/s
Quality : High
Add ID3 tag : No
Command line compressor : C:Program Files (x86)Exact Audio CopyFLACFLAC.EXE
Additional command line options : -8 -V -T "ARTIST=%artist%" -T "TITLE=%title%" -T "ALBUM=%albumtitle%" -T "DATE=%year%" -T "TRACKNUMBER=%tracknr%" -T "GENRE=%genre%" -T "PERFORMER=%albuminterpret%" -T "COMPOSER=%composer%" %haslyrics%–tag-from-file=LYRICS="%lyricsfile%"%haslyrics% -T "ALBUMARTIST=%albumartist%" -T "DISCNUMBER=%cdnumber%" -T "TOTALDISCS=%totalcds%" -T "TOTALTRACKS=%numtracks%" -T "COMMENT=%comment%" %source% -o %dest%

TOC of the extracted CD

Track | Start | Length | Start sector | End sector
––––––––––––––––––––––––––––-
1 | 0:00.32 | 7:06.25 | 32 | 32006
2 | 7:06.57 | 2:42.35 | 32007 | 44191
3 | 9:49.17 | 1:23.05 | 44192 | 50421
4 | 11:12.22 | 1:40.73 | 50422 | 57994
5 | 12:53.20 | 1:50.57 | 57995 | 66301
6 | 14:44.02 | 1:33.68 | 66302 | 73344
7 | 16:17.70 | 3:00.65 | 73345 | 86909
8 | 19:18.60 | 1:19.55 | 86910 | 92889
9 | 20:38.40 | 2:45.02 | 92890 | 105266
10 | 23:23.42 | 3:38.20 | 105267 | 121636
11 | 27:01.62 | 11:09.03 | 121637 | 171814
12 | 38:10.65 | 3:51.30 | 171815 | 189169
13 | 42:02.20 | 3:22.35 | 189170 | 204354
14 | 45:24.55 | 1:46.72 | 204355 | 212376

Track 1

Filename C:EACRipsThe Cosmic Jokers 1974 Gilles Zeitschiff1 – Tim Bleibt Bei Uns.wav

Pre-gap length 0:00:02.42

Peak level 99.5 %
Extraction speed 2.2 X
Track quality 99.9 %
Test CRC 7CAA14D2
Copy CRC 7CAA14D2
Cannot be verified as accurate (confidence 2) [344A0125], AccurateRip returned [0A56D32D] (AR v2)
Copy OK

Track 2

Filename C:EACRipsThe Cosmic Jokers 1974 Gilles Zeitschiff2 – Downtown.wav

Peak level 89.0 %
Extraction speed 3.1 X
Track quality 100.0 %
Test CRC 979B28DE
Copy CRC 979B28DE
Accurately ripped (confidence 2) [9B382331] (AR v1)
Copy OK

Track 3

Filename C:EACRipsThe Cosmic Jokers 1974 Gilles Zeitschiff3 – Lord Krishna.wav

Peak level 71.4 %
Extraction speed 2.7 X
Track quality 100.0 %
Test CRC EBF08F60
Copy CRC EBF08F60
Accurately ripped (confidence 2) [7360F19C] (AR v1)
Copy OK

Track 4

Filename C:EACRipsThe Cosmic Jokers 1974 Gilles Zeitschiff4 – Power Drive.wav

Peak level 81.2 %
Extraction speed 2.9 X
Track quality 100.0 %
Test CRC A3A80AB1
Copy CRC A3A80AB1
Accurately ripped (confidence 2) [ED0C00BA] (AR v1)
Copy OK

Track 5

Filename C:EACRipsThe Cosmic Jokers 1974 Gilles Zeitschiff5 – Bei Tim.wav

Peak level 69.9 %
Extraction speed 3.1 X
Track quality 100.0 %
Test CRC D55F8868
Copy CRC D55F8868
Accurately ripped (confidence 2) [A243628D] (AR v1)
Copy OK

Track 6

Filename C:EACRipsThe Cosmic Jokers 1974 Gilles Zeitschiff6 – Right Hand Lover.wav

Peak level 74.9 %
Extraction speed 2.1 X
Track quality 99.8 %
Test CRC D2199B49
Copy CRC D2199B49
Accurately ripped (confidence 2) [05364458] (AR v1)
Copy OK

Track 7

Filename C:EACRipsThe Cosmic Jokers 1974 Gilles Zeitschiff7 – Cosmic Courier Bon Chance.wav

Peak level 57.5 %
Extraction speed 3.6 X
Track quality 100.0 %
Test CRC 715A8B9B
Copy CRC 715A8B9B
Accurately ripped (confidence 2) [6D8A7D05] (AR v1)
Copy OK

Track 8

Filename C:EACRipsThe Cosmic Jokers 1974 Gilles Zeitschiff8 – Swiss-High-Lands.wav

Pre-gap length 0:00:04.90

Peak level 65.2 %
Extraction speed 3.1 X
Track quality 100.0 %
Test CRC 90473CC1
Copy CRC 90473CC1
Accurately ripped (confidence 2) [BEA3B2DA] (AR v1)
Copy OK

Track 9

Filename C:EACRipsThe Cosmic Jokers 1974 Gilles Zeitschiff9 – Der Magier.wav

Peak level 78.2 %
Extraction speed 3.0 X
Track quality 99.9 %
Test CRC FA9FB534
Copy CRC FA9FB534
Accurately ripped (confidence 2) [3DAD2D3F] (AR v1)
Copy OK

Track 10

Filename C:EACRipsThe Cosmic Jokers 1974 Gilles Zeitschiff10 – The Electronic Scene.wav

Peak level 83.6 %
Extraction speed 4.2 X
Track quality 100.0 %
Test CRC F811746D
Copy CRC F811746D
Accurately ripped (confidence 2) [05269BD1] (AR v1)
Copy OK

Track 11

Filename C:EACRipsThe Cosmic Jokers 1974 Gilles Zeitschiff11 – Electronic Rock Zeitalter.wav

Peak level 83.1 %
Extraction speed 5.0 X
Track quality 100.0 %
Test CRC 55A1DAAA
Copy CRC 55A1DAAA
Accurately ripped (confidence 2) [4BDD891D] (AR v1)
Copy OK

Track 12

Filename C:EACRipsThe Cosmic Jokers 1974 Gilles Zeitschiff12 – So Beautiful.wav

Peak level 65.4 %
Extraction speed 4.1 X
Track quality 99.9 %
Test CRC 96A1E312
Copy CRC 96A1E312
Accurately ripped (confidence 2) [1CDC95D6] (AR v1)
Copy OK

Track 13

Filename C:EACRipsThe Cosmic Jokers 1974 Gilles Zeitschiff13 – The Queen Of Sunshine.wav

Peak level 81.1 %
Extraction speed 4.9 X
Track quality 100.0 %
Test CRC 6AE7E741
Copy CRC 6AE7E741
Accurately ripped (confidence 2) [EF3A54DB] (AR v1)
Copy OK

Track 14

Filename C:EACRipsThe Cosmic Jokers 1974 Gilles Zeitschiff14 – Meine Kosmische Musik.wav

Peak level 77.2 %
Extraction speed 4.4 X
Track quality 100.0 %
Test CRC 0733EE73
Copy CRC 0733EE73
Accurately ripped (confidence 2) [51AD3903] (AR v1)
Copy OK

13 track(s) accurately ripped
1 track(s) could not be verified as accurate

Some tracks could not be verified as accurate

No errors occurred

End of status report

==== Log checksum FB7DE17BF291D9B6621A1EB0EE0C53927C99740925BD2992380CEA9F83BE5DE8 ====

Thanks to the Original ripper from whatcd and moneybags

The Cosmic Jokers – Gilles Zeitschiff (1974/1994) Download, Warez, DDL, Free, Full Album, Torrent, Legal.

Download