The Complete Hacking Course: Go from Beginner to Advanced! [repost] | ViralVideoPk

Daily Dose of Free Downloads

The Complete Hacking Course: Go from Beginner to Advanced! [repost]

Download

The Complete Hacking Course: Go from Beginner to Advanced! [repost]

The Complete Hacking Course: Go from Beginner to Advanced!
WEBRip | English | MP4 | 1280 x 720 | AVC ~310 kbps | 30 fps
AAC | 63.2 Kbps | 48.0 KHz | 2 channels | ~20 hours | 4.73 GB
Genre: Video Tutorial / IT & Software, Network & Security

Learn how to do penetration testing, web testing, wifi hacking, discover vulnerabilities in systems, and use kali linux!

Gain the ability to do penetration testing and ethical hacking by taking this course! Get answers from an experienced IT expert to every single question you have related to the learning you do in this course including installing Kali Linux, using VirtualBox, basics of Linux, Tor, Proxychains, VPN, Macchanger, Nmap, cracking wifi, aircrack, DoS attacks, SLL strip, known vulnerabilities, SQL injections, cracking Linux passwords, and more topics that are added every month!

If you are like me, you are reading more now because you want to know for sure whether this course is worth taking before you invest your money and time in it. More than 6,000 people have already completed the process of deciding to take this course and I hope sharing a few of their experiences can prove useful for you here. Here are what three recent students had to say in the reviews in their own words.

Content:

01 Ethical hacking and penetration testing. What is it and how can you use it
02 Prerequisites for getting started with this course
03 Basic hacking terms you will want to know getting started
04 Build your hacking environment
05 Linux Terminal including basic functionalities and CLI
06 What is Tor How can you use it to protect your anonymity online
07 ProxyChains for using proxy servers, hiding your ip, and obtaining access
08 What is a Virtual Private Network VPN and how you can stay anonymous with VPN
09 What is a macchanger How can you use it to change your mac address
10 Footprinting with Nmap and external resources
11 Attacking wireless networks. Overview of the tools
12 Breaking WPAWPA2 encryption. Wifi hacking and wifi hacker training
13 Signal jamming and denial of service
14 SLL strips
15 Lets have a bit of fun
16 Evil twin method Clone wireless access points to steal data
17 Attacking routers to give you free reign over the entire network
18 DNS setting hacking to redirect users with post authentication exploitation
19 Website attacks with SQL injections
20 Brute-forcing methods for cracking passwords
21 Denial of Service DoS attacks demonstrated and explained
22 Reverse shells. Gain remote control of any device
23 Make your own Keylogger in C

also You can watch my other last: Programming-posts

MediaInfo:
General
Complete name : 004 Cracking WPS pins with reaver part 1..mp4
Format : MPEG-4
Format profile : Base Media
Codec ID : isom
File size : 41.5 MiB
Duration : 15mn 24s
Overall bit rate mode : Variable
Overall bit rate : 376 Kbps
Encoded date : UTC 2015-04-02 13:16:20
Tagged date : UTC 2015-04-02 13:16:20

Video
ID : 1
Format : AVC
Format/Info : Advanced Video Codec
Format profile : Baseline@L3.1
Format settings, CABAC : No
Format settings, ReFrames : 3 frames
Format settings, GOP : M=1, N=50
Codec ID : avc1
Codec ID/Info : Advanced Video Coding
Duration : 15mn 24s
Bit rate : 310 Kbps
Maximum bit rate : 5 613 Kbps
Width : 1 280 pixels
Height : 720 pixels
Display aspect ratio : 16:9
Frame rate mode : Constant
Frame rate : 30.000 fps
Color space : YUV
Chroma subsampling : 4:2:0
Bit depth : 8 bits
Scan type : Progressive
Bits/(Pixel*Frame) : 0.011
Stream size : 34.2 MiB (82%)
Writing library : Zencoder Video Encoding System
Encoded date : UTC 2015-04-02 13:11:17
Tagged date : UTC 2015-04-02 13:16:20

Audio
ID : 2
Format : AAC
Format/Info : Advanced Audio Codec
Format profile : LC
Codec ID : 40
Duration : 15mn 24s
Bit rate mode : Variable
Bit rate : 63.2 Kbps
Maximum bit rate : 78.0 Kbps
Channel(s) : 2 channels
Channel positions : Front: L R
Sampling rate : 48.0 KHz
Compression mode : Lossy
Stream size : 6.97 MiB (17%)
Encoded date : UTC 2015-04-02 13:16:20
Tagged date : UTC 2015-04-02 13:16:20

Screenshots

The Complete Hacking Course: Go from Beginner to Advanced! [repost]

The Complete Hacking Course: Go from Beginner to Advanced! [repost]

The Complete Hacking Course: Go from Beginner to Advanced! [repost]

The Complete Hacking Course: Go from Beginner to Advanced! [repost]

Exclusive eLearning Videos ParRus-blogadd to bookmarks

The Complete Hacking Course: Go from Beginner to Advanced! [repost]

The Complete Hacking Course: Go from Beginner to Advanced! [repost] Download, Warez, DDL, Free, Torrent, Legal.

Download


  • Recent Posts

  • Recent Tags