The Call – Into The Woods (1987)

Download
The Call - Into The Woods (1987)

The Call – Into The Woods (1987)
EAC Rip | FLAC (Img) + Cue + Log ~ 271 Mb | MP3 CBR320 ~ 100 Mb
Scans (JPG, 400 dpi) ~ 24 Mb | RAR 5% Recovery
Alternative Rock, New Wave | Elektra #9 60739-2 | US

Coming off the success of the previous year’s Reconciled, the Call returned in 1987 with Into the Woods. The slow-building "I Don’t Wanna" is a bit ragged at moments but reaches an impressive sonic swell and Michael Been’s vocals are passionate as always. "In the River"’s tone is forlorn, but backed by a solid, smoldering melody and gospel background vocals. A tumbling, percussive beat drives "It Could’ve Been Mean," a rumination on fate that is simple, yet effective. "Day or Night" probably comes the closest to best capturing the band’s usual anthemic style. Much of In the Woods has a darker, more serious feel to it. The somber, introspective nature of the lyrics and the lack of a track with a hook as memorable as the radio hits from Reconciled undoubtedly doomed a further commercial breakthrough. However, Into the Woods is a worthy and challenging artistic follow-up.

~ Tom Demalon, All Music
Official Website | Wiki | Discogs | All Music

***************

The Call - Into The Woods (1987)

Track List:

01. I Don’t Wanna [5:17]
02. In The River [4:03]
03. It Could Have Been Me [4:39]
04. The Woods [5:12]
05. Day Or Night [4:15]
06. Memory [4:07]
07. Too Many Tears [4:26]
08. Expecting [4:55]
09. Walk Walk [4:59]

EAC Log
Exact Audio Copy V1.1 from 23. June 2015

EAC extraction logfile from 18. December 2016, 10:57

The Call / Into The Woods

Used drive : HL-DT-STDVDRAM GH22NS40 Adapter: 1 ID: 0

Read mode : Secure
Utilize accurate stream : Yes
Defeat audio cache : Yes
Make use of C2 pointers : No

Read offset correction : 667
Overread into Lead-In and Lead-Out : No
Fill up missing offset samples with silence : Yes
Delete leading and trailing silent blocks : No
Null samples used in CRC calculations : Yes
Used interface : Native Win32 interface for Win NT & 2000

Used output format : User Defined Encoder
Selected bitrate : 1024 kBit/s
Quality : High
Add ID3 tag : No
Command line compressor : C:Program FilesExact Audio CopyFlacflac.exe
Additional command line options : -V -8 -T "Date=%year%" -T "Genre=%genre%" %source%

TOC of the extracted CD

Track | Start | Length | Start sector | End sector
––––––––––––––––––––––––––––-
1 | 0:00.32 | 5:17.05 | 32 | 23811
2 | 5:17.37 | 4:02.60 | 23812 | 42021
3 | 9:20.22 | 4:38.55 | 42022 | 62926
4 | 13:59.02 | 5:12.15 | 62927 | 86341
5 | 19:11.17 | 4:15.15 | 86342 | 105481
6 | 23:26.32 | 4:06.70 | 105482 | 124001
7 | 27:33.27 | 4:25.60 | 124002 | 143936
8 | 31:59.12 | 4:54.40 | 143937 | 166026
9 | 36:53.52 | 4:58.55 | 166027 | 188431

Range status and errors

Selected range

Filename I:RipspowermetThe Call – Into The Woods.wav

Peak level 100.0 %
Extraction speed 5.5 X
Range quality 100.0 %
Test CRC 082F4801
Copy CRC 082F4801
Copy OK

No errors occurred

AccurateRip summary

Track 1 accurately ripped (confidence 12) [E2755CC4] (AR v2)
Track 2 accurately ripped (confidence 12) [E892DC9D] (AR v2)
Track 3 accurately ripped (confidence 12) [6F228F51] (AR v2)
Track 4 accurately ripped (confidence 13) [CF84AFBF] (AR v2)
Track 5 accurately ripped (confidence 12) [B031D668] (AR v2)
Track 6 accurately ripped (confidence 13) [8463D432] (AR v2)
Track 7 accurately ripped (confidence 15) [431181EC] (AR v2)
Track 8 accurately ripped (confidence 14) [8E7691C8] (AR v2)
Track 9 accurately ripped (confidence 12) [B4CA9675] (AR v2)

All tracks accurately ripped

End of status report

–– CUETools DB Plugin V2.1.6

[CTDB TOCID: M2SR.1A7y.7ei0y1dGdyEg1c.t4-] found
Submit result: already submitted
Track | CTDB Status
1 | (14/15) Accurately ripped
2 | (15/15) Accurately ripped
3 | (15/15) Accurately ripped
4 | (14/15) Accurately ripped
5 | (14/15) Accurately ripped
6 | (13/15) Accurately ripped
7 | (15/15) Accurately ripped
8 | (15/15) Accurately ripped
9 | (15/15) Accurately ripped

==== Log checksum 13F711CBD8C05BF728FF084C52599FE330893B8443B17DCAB7950DE99A65AB9A ====

DR Log
foobar2000 1.2.6 / Dynamic Range Meter 1.1.1
log date: 2016-12-28 15:31:01

––––––––––––––––––––––––––––––––––––––––
Analyzed: The Call / Into The Woods
––––––––––––––––––––––––––––––––––––––––

DR Peak RMS Duration Track
––––––––––––––––––––––––––––––––––––––––
DR13 0.00 dB -14.82 dB 5:17 01-I Don’t Wanna
DR11 -0.97 dB -14.84 dB 4:03 02-In The River
DR12 -0.45 dB -14.79 dB 4:39 03-It Could Have Been Me
DR12 -1.25 dB -14.64 dB 5:12 04-The Woods
DR12 -0.69 dB -14.54 dB 4:15 05-Day Or Night
DR13 -2.40 dB -18.21 dB 4:07 06-Memory
DR12 -0.50 dB -15.19 dB 4:26 07-Too Many Tears
DR12 -1.02 dB -16.52 dB 4:55 08-Expecting
DR15 0.00 dB -16.41 dB 4:59 09-Walk Walk
––––––––––––––––––––––––––––––––––––––––

Number of tracks: 9
Official DR value: DR12

Samplerate: 44100 Hz
Channels: 2
Bits per sample: 16
Bitrate: 862 kbps
Codec: FLAC
================================================================================

CUETools Log
[CUETools log; Date: 28.12.2016 15:31:04; Version: 2.1.5]
Pregap length 00:00:32.
[CTDB TOCID: M2SR.1A7y.7ei0y1dGdyEg1c.t4-] found.
Track | CTDB Status
1 | (14/15) Accurately ripped
2 | (15/15) Accurately ripped
3 | (15/15) Accurately ripped
4 | (14/15) Accurately ripped
5 | (14/15) Accurately ripped
6 | (13/15) Accurately ripped
7 | (15/15) Accurately ripped
8 | (15/15) Accurately ripped
9 | (15/15) Accurately ripped
[AccurateRip ID: 000e63a7-00691aa9-6809d009] found.
Track [ CRC | V2 ] Status
01 [fa8a9bf3|e2755cc4] (13+12/36) Accurately ripped
02 [6c621c80|e892dc9d] (14+12/37) Accurately ripped
03 [4ec3134f|6f228f51] (14+12/36) Accurately ripped
04 [2c2fbb8d|cf84afbf] (14+13/38) Accurately ripped
05 [e0747072|b031d668] (13+12/36) Accurately ripped
06 [e12dc218|8463d432] (14+13/38) Accurately ripped
07 [cac6a873|431181ec] (14+15/40) Accurately ripped
08 [b5f8205d|8e7691c8] (13+14/38) Accurately ripped
09 [d5db0564|b4ca9675] (13+12/36) Accurately ripped
Offsetted by -121:
01 [496752e8] (06/36) Accurately ripped
02 [3dd7f482] (06/37) Accurately ripped
03 [cddb9f4e] (05/36) Accurately ripped
04 [4c8ffd82] (06/38) Accurately ripped
05 [3eddd83f] (06/36) Accurately ripped
06 [087ba159] (06/38) Accurately ripped
07 [147a5a36] (06/40) Accurately ripped
08 [c5ac6897] (06/38) Accurately ripped
09 [a6337f97] (06/36) Accurately ripped

Track Peak [ CRC32 ] [W/O NULL] [ LOG ]
– 100,0 [082F4801] [219B3F83] CRC32
01 100,0 [59CC3456] [D4851AED]
02 89,4 [6FFB525E] [38751611]
03 94,9 [BD790E9A] [F02E6AED]
04 86,6 [8D8DF745] [C20CA5EF]
05 92,4 [E96F1C88] [BA4B7072]
06 75,8 [95BC61D7] [0AFC1193]
07 94,4 [07085953] [390A5C30]
08 88,8 [454EF83B] [45F9A446]
09 100,0 [A9EA6234] [6C6666E9]

The Call - Into The Woods (1987)

The Call - Into The Woods (1987)

All thanks go to powermet

> Visit my blog <

Download:

The Call – Into The Woods (1987) Download, Warez, DDL, Free, Full Album, Torrent, Legal.

Download