The Brian Setzer Orchestra – The Dirty Boogie (1998)

Download
The Brian Setzer Orchestra - The Dirty Boogie (1998)

The Brian Setzer Orchestra – The Dirty Boogie (1998)
EAC Rip | FLAC (Img) + Cue + Log ~ 361 Mb | Scans (PNG, 350 dpi) ~ 66 Mb | RAR 5% Recovery
Rock & Roll, Rockabilly, Swing | Interscope Records / Universal Music (RUS) #490 183-9

Evidently, Brian Setzer doesn’t take the jump blues and swing of the Brian Setzer Orchestra as a joke. Dirty Boogie is his third album with his large band, and instead of sounding tired, the record is the group’s best effort yet. Setzer rocks the band hard, tearing through blues and rock & roll covers with vigor, and delivering made-to-order originals that are surprisingly well crafted and memorable. Much attention will be paid to "You’re the Boss," a cover of the Elvis Presley/Ann Margaret staple from Viva Las Vegas, performed as a duet with No Doubt’s Gwen Stefani, but that’s hardly the only highlight here – it’s a swinging, rocking record that suggests Setzer’s skills are only improving with time.

~ Stephen Thomas Erlewine, All Music
Wiki | Discogs | All Music

***************

The Brian Setzer Orchestra - The Dirty Boogie (1998)

Track List:

01. This Cat’s On A Hot Tin Roof [2:19]
02. The Dirty Boogie [3:14]
03. This Old House [3:07]
04. Let’s Live It Up [3:42]
05. Sleepwalk [3:50]
06. Jump Jive an’ Wail [2:54]
07. You’re the Boss [3:43]
08. Rock This Town [6:38]
09. Since I Don’t Have You [4:09]
10. Switchblade 327 [3:30]
11. Nosey Joe [2:55]
12. Hollywood Nocturne [5:37]
13. As Long As I’m Singing [4:04]

EAC Log
Exact Audio Copy V1.3 from 2. September 2016

Отчёт EAC об извлечении, выполненном 15. декабря 2016, 21:48

The Brian Setzer Orchestra / The Dirty Boogie

Дисковод: _NEC DVD_RW ND-3550A Adapter: 1 ID: 3

Режим чтения : Достоверность
Использование точного потока : Да
Отключение кэша аудио : Да
Использование указателей C2 : Нет

Коррекция смещения при чтении : 48
Способность читать области Lead-in и Lead-out : Нет
Заполнение пропущенных сэмплов тишиной : Да
Удаление блоков с тишиной в начале и конце : Нет
При вычислениях CRC использовались нулевые сэмплы : Да
Интерфейс : Встроенный Win32-интерфейс для Win NT/2000

Выходной формат : Пользовательский кодировщик
Выбранный битрейт : 1024 kBit/s
Качество : Высокий
Добавление ID3-тега : Нет
Утилита сжатия : C:Program Files (x86)Exact Audio CopyFLACFLAC.EXE
Дополнительные параметры : -6 -V -T "ARTIST=%artist%" -T "TITLE=%title%" -T "ALBUM=%albumtitle%" -T "DATE=%year%" -T "TRACKNUMBER=%tracknr%" -T "GENRE=%genre%" -T "COMMENT=%comment%" -T "BAND=%albuminterpret%" -T "ALBUMARTIST=%albuminterpret%" -T "COMPOSER=%composer%" %haslyrics%–tag-from-file=LYRICS="%lyricsfile%"%haslyrics% -T "DISCNUMBER=%cdnumber%" -T "TOTALDISCS=%totalcds%" -T "TOTALTRACKS=%numtracks%" %hascover%–picture="%coverfile%"%hascover% %source% -o %dest%

TOC извлечённого CD

Трек | Старт | Длительность | Начальный сектор | Конечный сектор
––––––––––––––––––––––––––––––––––-
1 | 0:00.00 | 2:19.35 | 0 | 10459
2 | 2:19.35 | 3:13.48 | 10460 | 24982
3 | 5:33.08 | 3:06.67 | 24983 | 38999
4 | 8:40.00 | 3:41.68 | 39000 | 55642
5 | 12:21.68 | 3:49.40 | 55643 | 72857
6 | 16:11.33 | 2:54.00 | 72858 | 85907
7 | 19:05.33 | 3:43.37 | 85908 | 102669
8 | 22:48.70 | 6:37.53 | 102670 | 132497
9 | 29:26.48 | 4:09.20 | 132498 | 151192
10 | 33:35.68 | 3:30.37 | 151193 | 166979
11 | 37:06.30 | 2:55.05 | 166980 | 180109
12 | 40:01.35 | 5:36.45 | 180110 | 205354
13 | 45:38.05 | 4:03.70 | 205355 | 223649

Характеристики диапазона извлечения и сообщения об ошибках

Выбранный диапазон

Имя файла C:UsersDesktopThe Brian Setzer Orchestra – The Dirty Boogie (1998)The Brian Setzer Orchestra – The Dirty Boogie.wav

Пиковый уровень 99.9 %
Скорость извлечения 6.6 X
Качество диапазона 99.9 %
CRC теста 6FA1E4C2
CRC копии 6FA1E4C2
Копирование… OK

Ошибок не произошло

AccurateRip: сводка

Трек 1 точность не определена (достоверность 1) [78BB6B22], AccurateRip вернул [7ED5261B] (AR v2)
Трек 2 точность не определена (достоверность 1) [FE929BCB], AccurateRip вернул [B3EF87EB] (AR v2)
Трек 3 точность не определена (достоверность 1) [CC0BE410], AccurateRip вернул [23DDBAD4] (AR v2)
Трек 4 точность не определена (достоверность 1) [55B0324E], AccurateRip вернул [B06548B6] (AR v2)
Трек 5 точность не определена (достоверность 1) [CB57FC22], AccurateRip вернул [18476909] (AR v2)
Трек 6 точность не определена (достоверность 1) [C4C94A00], AccurateRip вернул [89B670FC] (AR v2)
Трек 7 точность не определена (достоверность 1) [1A7FA5A2], AccurateRip вернул [006AE638] (AR v2)
Трек 8 точность не определена (достоверность 1) [D04E3B6F], AccurateRip вернул [308D16FE] (AR v2)
Трек 9 точность не определена (достоверность 1) [7C670778], AccurateRip вернул [FE45431C] (AR v2)
Трек 10 точность не определена (достоверность 1) [BDD9CA21], AccurateRip вернул [6E86A24C] (AR v2)
Трек 11 точность не определена (достоверность 1) [BEE98513], AccurateRip вернул [651DF386] (AR v2)
Трек 12 точность не определена (достоверность 1) [E2B1B6F2], AccurateRip вернул [23BB160D] (AR v2)
Трек 13 точность не определена (достоверность 1) [BC7472AD], AccurateRip вернул [E090D095] (AR v2)

Ни один трек не прошёл проверки на точность
В вашей базе может быть иной вариант штамповки диска

Конец отчёта

–– CUETools DB Plugin V2.1.6

[CTDB TOCID: wriOPmMC3IbIsYAnaE2aL1BWAsY-] found
Submit result: wriOPmMC3IbIsYAnaE2aL1BWAsY- has been uploaded
Track | CTDB Status
1 | (73/73) Accurately ripped
2 | (71/73) Accurately ripped, or (1/73) differs in 1 samples @03:13:10
3 | (72/73) Accurately ripped, or (1/73) differs in 2264 samples @00:00:01-00:00:03
4 | (73/73) Accurately ripped
5 | (72/73) Accurately ripped, or (1/73) differs in 1 samples @00:10:35
6 | (73/73) Accurately ripped
7 | (72/73) Accurately ripped, or (1/73) differs in 2 samples @00:26:62,01:13:55
8 | (72/73) Accurately ripped, or (1/73) differs in 2 samples @03:43:14,04:30:06
9 | (72/73) Accurately ripped, or (1/73) differs in 1 samples @04:05:14
10 | (70/73) Accurately ripped
11 | (71/73) Accurately ripped, or (1/73) differs in 894 samples @00:00:01-00:00:03
12 | (72/73) Accurately ripped, or (1/73) differs in 1 samples @01:17:12
13 | (72/73) Accurately ripped

==== Контрольная сумма отчёта 9759ED0A4AD5988B4243AA8D432E76F36F5AC03148AE5C090EBF9CFC3C9A0D28 ====

DR Log
foobar2000 1.2.6 / Dynamic Range Meter 1.1.1
log date: 2016-12-16 13:06:24

––––––––––––––––––––––––––––––––––––––––
Analyzed: The Brian Setzer Orchestra / The Dirty Boogie
––––––––––––––––––––––––––––––––––––––––

DR Peak RMS Duration Track
––––––––––––––––––––––––––––––––––––––––
DR9 0.00 dB -9.89 dB 2:19 01-This Cat’s On A Hot Tin Roof
DR9 0.00 dB -10.49 dB 3:14 02-The Dirty Boogie
DR9 0.00 dB -10.78 dB 3:07 03-This Old House
DR9 0.00 dB -10.98 dB 3:42 04-Let’s Live It Up
DR9 0.00 dB -11.67 dB 3:50 05-Sleepwalk
DR8 0.00 dB -9.41 dB 2:54 06-Jump Jive an’ Wail
DR10 0.00 dB -12.23 dB 3:43 07-You’re the Boss
DR9 0.00 dB -10.25 dB 6:38 08-Rock This Town
DR9 0.00 dB -10.48 dB 4:09 09-Since I Don’t Have You
DR9 0.00 dB -10.35 dB 3:30 10-Switchblade 327
DR10 0.00 dB -10.98 dB 2:55 11-Nosey Joe
DR10 0.00 dB -12.12 dB 5:37 12-Hollywood Nocturne
DR10 0.00 dB -11.08 dB 4:04 13-As Long As I’m Singing
––––––––––––––––––––––––––––––––––––––––

Number of tracks: 13
Official DR value: DR9

Samplerate: 44100 Hz
Channels: 2
Bits per sample: 16
Bitrate: 967 kbps
Codec: FLAC
================================================================================

CUETools Log
[CUETools log; Date: 05.02.2017 20:20:14; Version: 2.1.5]
[CTDB TOCID: wriOPmMC3IbIsYAnaE2aL1BWAsY-] found.
Track | CTDB Status
1 | (84/84) Accurately ripped
2 | (82/84) Accurately ripped, or (1/84) differs in 1 samples @03:13:10
3 | (83/84) Accurately ripped, or (1/84) differs in 2264 samples @00:00:01-00:00:03
4 | (84/84) Accurately ripped
5 | (83/84) Accurately ripped, or (1/84) differs in 1 samples @00:10:35
6 | (84/84) Accurately ripped
7 | (83/84) Accurately ripped, or (1/84) differs in 2 samples @00:26:62,01:13:55
8 | (83/84) Accurately ripped, or (1/84) differs in 2 samples @03:43:14,04:30:06
9 | (83/84) Accurately ripped, or (1/84) differs in 1 samples @04:05:14
10 | (81/84) Accurately ripped
11 | (82/84) Accurately ripped, or (1/84) differs in 894 samples @00:00:01-00:00:03
12 | (83/84) Accurately ripped, or (1/84) differs in 1 samples @01:17:12
13 | (83/84) Accurately ripped
[AccurateRip ID: 0016252c-00e34078-990ba60d] found.
Track [ CRC | V2 ] Status
01 [4f861102|78bb6b22] (0+0/1) No match
02 [cf86ea41|fe929bcb] (0+0/1) No match
03 [c2badcf1|cc0be410] (0+0/1) No match
04 [9f15d30b|55b0324e] (0+0/1) No match
05 [d93cbfbb|cb57fc22] (0+0/1) No match
06 [340e159d|c4c94a00] (0+0/1) No match
07 [ee1895bd|1a7fa5a2] (0+0/1) No match
08 [53cc3229|d04e3b6f] (0+0/1) No match
09 [92f540f3|7c670778] (0+0/1) No match
10 [13bfec12|bdd9ca21] (0+0/1) No match
11 [522aec83|bee98513] (0+0/1) No match
12 [729d04ce|e2b1b6f2] (0+0/1) No match
13 [5e465e44|bc7472ad] (0+0/1) No match

Track Peak [ CRC32 ] [W/O NULL] [ LOG ]
– 99,9 [6FA1E4C2] [4E4BEC44] CRC32
01 99,9 [002768F0] [F308D8A4]
02 99,9 [B00F0F10] [659F128F]
03 99,9 [A37622F5] [CC615CC6]
04 99,9 [4C570D11] [72E982D7]
05 99,9 [9BF2CE39] [1BA4C2CE]
06 99,9 [919B189A] [EF90FC0A]
07 99,9 [B55447CA] [F1E1892C]
08 99,9 [6FFB554C] [6DC43FC4]
09 99,9 [10460E4A] [B256C539]
10 99,9 [DBC52887] [FD632C73]
11 99,9 [83452A3C] [0751D97A]
12 99,9 [A2A0B983] [7ABA5069]
13 99,9 [74B3CBE7] [BF2BA6CA]

The Brian Setzer Orchestra - The Dirty Boogie (1998)

The Brian Setzer Orchestra - The Dirty Boogie (1998)

See also:
Brian Setzer – Live Nude Guitars (1988)

All thanks go to Olegator

> Visit my blog <

The Brian Setzer Orchestra – The Dirty Boogie (1998) Download, Warez, DDL, Free, Full Album, Torrent, Legal.

Download