The Bonzo Dog Band – Cornology (1992) | ViralVideoPk

Daily Dose of Free Downloads

The Bonzo Dog Band – Cornology (1992)

Download

The Bonzo Dog Band - Cornology (1992)

The Bonzo Dog Band – Cornology (1992)
Rock, Comedy | 3cd | EAC Rip | Flac + Cue + Log | covers
EMI 07777 99596~8 | rel: 1992 | 1250Mb

Cornology is a 1992 compilation box set, issued by EMI Records, of the complete recorded output of The Bonzo Dog Band, previously issued on the Parlophone, Liberty and United Artists labels.
The three CDs each have subtitles. Volume One is titled The Intro and contains the albums Gorilla and The Doughnut in Granny’s Greenhouse. Volume Two is subtitled The Outro and contains the albums Tadpoles and Keynsham. Volume Three is titled Dog Ends and contains their final original album Let’s Make Up and Be Friendly along with early Bonzo Dog singles, odds and ends and solo material. ~Wikipedia

Track listing
cd1:
01. Cool Britannia (0:58)
02. The Equestrian Statue (2:42)
03. Jollity Farm (2:27)
04. I Left My Heart In San Francisco (1:01)
05. Look Out, There’s A Monster Coming (2:52)
06. Jazz, Delicious Hot, Disgusting Cold (3:08)
07. Death Cab For Cutie (2:53)
08. Narcissus (0:22)
09. The Intro And The Outro (3:02)
10. Mickey’s Son And Daughter (2:41)
11. Big Shot (3:28)
12. Music For The Head Ballet (1:43)
13. Piggy Bank Love (3:02)
14. I’m Bored (3:05)
15. Th Sound Of Music (1:20)
16. We Are Normal (4:49)
17. Postcard (4:20)
18. Beautiful Zelda (2:25)
19. Can Blue Men Sing The Whites (2:45)
20. Hello Mabel (2:45)
21. Karma Sutra (0:37)
22. Humanoid Boogie (3:02)
23. Trouser Press (2:18)
24. My Pink Half Of The Drainpipe (3:32)
25. Rockaliser Baby (3:28)
26. Rhinocratic Oaths (3:20)
27. 11 Mustachioed Daughters (3:49)

cd2:
01. Hunting Tigers Out In ‘INDIAH’ (3:04)
02. Shirt (4:25)
03. Tubas In The Moonlight (2:21)
04. Dr. Jazz (2:39)
05. Monster Mash (2:59)
06. I’m The Urban Spaceman (2:22)
07. Ali Baba’s Camel (3:31)
08. Laughing Blues (3:42)
09. By A Waterfall (3:07)
10. Mr. Apollo (4:18)
11. Canyons Of Your Mind (3:02)
12. You Done My Brain In (1:41)
13. Keynsham (2:22)
14. Quiet Talks And Summer Walks (3:37)
15. Tent (3:06)
16. We Were Wrong (2:31)
17. Joke Shop Man (1:22)
18. The Bride Stripped Bare By ‘Bachelors’ (2:39)
19. Look At Me I’m Wonderful (1:45)
20. What Do You Do ? (3:12)
21. Mr. Slater’s Parrot (2:26)
22. Sport (The Odd Boy) (3:30)
23. I Want To Be With You (2:16)
24. Noises For The Leg (1:52)
25. Busted (5:47)

cd3:
01. My Brother Makes The Noises For The Talkies (3:01)
02. I’m Going To Bring A Watermelon To My Girl Tonight (2:02)
03. Alley Oop (2:31)
04. Button Up Your Overcoat (2:52)
05. Mr. Apollo (Single Version) (German Version) (4:12)
06. Ready Mades (3:07)
07. The Strain (3:22)
08. Turkeys (2:09)
09. King Of Scurf (4:58)
10. Waiting For The Wardrobe (2:46)
11. Straight From The Heart (3:06)
12. Rusty (Champion Thrust) (7:14)
13. Rawlinson End (9:07)
14. Don’t Get Me Wrong (4:51)
15. Fresh Wound (4:26)
16. Bad Blood (5:30)
17. Slush (2:18)
18. Labio-Dental Fricative – Vivian Stanshall Sean Head Showband (3:07)
19. Re-Cycled Vinyl Blues – Neil Innes (3:31)
20. Trouser Freak – Roger Ruskin Spear & His Giant Orchestral Wardrobe (2:18)

Personnel
– Alto Saxophone – Rodney Slater
– Bass – Vernon Dudley Bohay-Nowell
– Drums – "Legs" Larry Smith
– Percussion [Rhythm Pole] – Sam Spoons
– Tenor Saxophone – Roger Ruskin Spear
– Vocals, Narrator, Trumpet – Vivian Stanshall
– Vocals, Piano – Neil Innes

eac logs:
EAC extraction logfile from 26. December 2009, 12:28 for CD
The Bonzo Dog Band / Cornology – Vol.1 The Intro

Used drive : HL-DT-STDVDRAM GH22NS50 Adapter: 5 ID: 0
Read mode : Secure with NO C2, accurate stream, disable cache
Read offset correction : 102
Overread into Lead-In and Lead-Out : No

Used output format : Internal WAV Routines
44.100 Hz; 16 Bit; Stereo

Other options :
Fill up missing offset samples with silence : Yes
Delete leading and trailing silent blocks : No
Native Win32 interface for Win NT & 2000

Track 1
Filename E:Music1 – Cool Britannia.wav

Pre-gap length 0:00:02.42

Peak level 94.6 %
Track quality 100.0 %
Test CRC E4006778
Copy CRC E4006778
Copy OK

Track 2
Filename E:Music2 – The Equestrian Statue.wav

Pre-gap length 0:00:01.97

Peak level 100.0 %
Track quality 99.9 %
Test CRC 6AC4521A
Copy CRC 6AC4521A
Copy OK

Track 3
Filename E:Music3 – Jollity Farm.wav

Pre-gap length 0:00:01.40

Peak level 82.0 %
Track quality 100.0 %
Test CRC D5B41545
Copy CRC D5B41545
Copy OK

Track 4
Filename E:Music4 – I Left My Heart In San Francisco.wav

Pre-gap length 0:00:01.26

Peak level 90.7 %
Track quality 100.0 %
Test CRC 0FC3D0C1
Copy CRC 0FC3D0C1
Copy OK

Track 5
Filename E:Music5 – Look Out, There’s A Monster Coming.wav

Pre-gap length 0:00:02.13

Peak level 95.6 %
Track quality 100.0 %
Test CRC AFB03169
Copy CRC AFB03169
Copy OK

Track 6
Filename E:Music6 – Jazz, Delicious Hot, Disgusting Cold.wav

Pre-gap length 0:00:01.57

Peak level 82.2 %
Track quality 99.9 %
Test CRC F8D844B7
Copy CRC F8D844B7
Copy OK

Track 7
Filename E:Music7 – Death Cab For Cutie.wav

Pre-gap length 0:00:02.20

Peak level 92.6 %
Track quality 100.0 %
Test CRC 92B51E2D
Copy CRC 92B51E2D
Copy OK

Track 8
Filename E:Music8 – Narcissus.wav

Pre-gap length 0:00:02.22

Peak level 91.3 %
Track quality 100.0 %
Test CRC F9FA4F5B
Copy CRC F9FA4F5B
Copy OK

Track 9
Filename E:Music9 – The Intro And The Outro.wav

Pre-gap length 0:00:00.73

Peak level 100.0 %
Track quality 100.0 %
Test CRC 5DBBFA6F
Copy CRC 5DBBFA6F
Copy OK

Track 10
Filename E:Music10 – Mickey’s Son And Daughter.wav

Pre-gap length 0:00:01.56

Peak level 96.2 %
Track quality 100.0 %
Test CRC BB613AFC
Copy CRC BB613AFC
Copy OK

Track 11
Filename E:Music11 – Big Shot.wav

Pre-gap length 0:00:02.06

Peak level 89.1 %
Track quality 100.0 %
Test CRC 48646F9E
Copy CRC 48646F9E
Copy OK

Track 12
Filename E:Music12 – Music For The Head Ballet.wav

Pre-gap length 0:00:01.13

Peak level 91.7 %
Track quality 100.0 %
Test CRC C8F941B7
Copy CRC C8F941B7
Copy OK

Track 13
Filename E:Music13 – Piggy Bank Love.wav

Pre-gap length 0:00:01.77

Peak level 100.0 %
Track quality 100.0 %
Test CRC A6AB29B5
Copy CRC A6AB29B5
Copy OK

Track 14
Filename E:Music14 – I’m Bored.wav

Pre-gap length 0:00:01.62

Peak level 92.2 %
Track quality 100.0 %
Test CRC 4E735BD7
Copy CRC 4E735BD7
Copy OK

Track 15
Filename E:Music15 – Th Sound Of Music.wav

Pre-gap length 0:00:01.76

Peak level 87.7 %
Track quality 100.0 %
Test CRC 5036400C
Copy CRC 5036400C
Copy OK

Track 16
Filename E:Music16 – We Are Normal.wav

Pre-gap length 0:00:02.33

Peak level 84.2 %
Track quality 100.0 %
Test CRC D22C38C8
Copy CRC D22C38C8
Copy OK

Track 17
Filename E:Music17 – Postcard.wav

Pre-gap length 0:00:00.86

Peak level 91.8 %
Track quality 100.0 %
Test CRC 131CF34B
Copy CRC 131CF34B
Copy OK

Track 18
Filename E:Music18 – Beautiful Zelda.wav

Pre-gap length 0:00:02.24

Peak level 88.1 %
Track quality 100.0 %
Test CRC 2F3E9068
Copy CRC 2F3E9068
Copy OK

Track 19
Filename E:Music19 – Can Blue Men Sing The Whites.wav

Pre-gap length 0:00:01.56

Peak level 93.3 %
Track quality 100.0 %
Test CRC BD5B14E0
Copy CRC BD5B14E0
Copy OK

Track 20
Filename E:Music20 – Hello Mabel.wav

Pre-gap length 0:00:02.00

Peak level 100.0 %
Track quality 100.0 %
Test CRC 7BB50D80
Copy CRC 7BB50D80
Copy OK

Track 21
Filename E:Music21 – Karma Sutra.wav

Pre-gap length 0:00:00.60

Peak level 88.8 %
Track quality 100.0 %
Test CRC 6DF1EA64
Copy CRC 6DF1EA64
Copy OK

Track 22
Filename E:Music22 – Humanoid Boogie.wav

Pre-gap length 0:00:01.80

Peak level 70.7 %
Track quality 100.0 %
Test CRC E0137A0E
Copy CRC E0137A0E
Copy OK

Track 23
Filename E:Music23 – Trouser Press.wav

Pre-gap length 0:00:01.57

Peak level 83.0 %
Track quality 100.0 %
Test CRC 44D04F26
Copy CRC 44D04F26
Copy OK

Track 24
Filename E:Music24 – My Pink Half Of The Drainpipe.wav

Pre-gap length 0:00:01.97

Peak level 91.6 %
Track quality 100.0 %
Test CRC E7034551
Copy CRC E7034551
Copy OK

Track 25
Filename E:Music25 – Rockaliser Baby.wav

Pre-gap length 0:00:01.66

Peak level 98.2 %
Track quality 100.0 %
Test CRC 38AAD3BC
Copy CRC 38AAD3BC
Copy OK

Track 26
Filename E:Music26 – Rhinocratic Oaths.wav

Pre-gap length 0:00:01.76

Peak level 100.0 %
Track quality 100.0 %
Test CRC C6850299
Copy CRC C6850299
Copy OK

Track 27
Filename E:Music27 – 11 Mustachioed Daughters.wav

Pre-gap length 0:00:01.66

Peak level 100.0 %
Track quality 100.0 %
Test CRC A245204B
Copy CRC A245204B
Copy OK

No errors occured

End of status report

––––––––––––––––––––––––––––––––-

EAC extraction logfile from 26. December 2009, 14:44 for CD
The Bonzo Dog Band / Cornology Vol.2 – The Outro

Used drive : HL-DT-STDVDRAM GH22NS50 Adapter: 5 ID: 0
Read mode : Secure with NO C2, accurate stream, disable cache
Read offset correction : 102
Overread into Lead-In and Lead-Out : No

Used output format : Internal WAV Routines
44.100 Hz; 16 Bit; Stereo

Other options :
Fill up missing offset samples with silence : Yes
Delete leading and trailing silent blocks : No
Native Win32 interface for Win NT & 2000

Track 1
Filename E:Music1 – Hunting Tigers Out In ‘INDIAH’.wav

Pre-gap length 0:00:02.42

Peak level 95.1 %
Track quality 100.0 %
Test CRC 486E4018
Copy CRC 486E4018
Copy OK

Track 2
Filename E:Music2 – Shirt.wav

Pre-gap length 0:00:01.26

Peak level 88.2 %
Track quality 100.0 %
Test CRC 8C581AA5
Copy CRC 8C581AA5
Copy OK

Track 3
Filename E:Music3 – Tubas In The Moonlight.wav

Pre-gap length 0:00:01.24

Peak level 79.1 %
Track quality 100.0 %
Test CRC 9CE470DD
Copy CRC 9CE470DD
Copy OK

Track 4
Filename E:Music4 – Dr. Jazz.wav

Pre-gap length 0:00:01.26

Peak level 83.2 %
Track quality 99.9 %
Test CRC 57226E8D
Copy CRC 57226E8D
Copy OK

Track 5
Filename E:Music5 – Monster Mash.wav

Pre-gap length 0:00:00.86

Peak level 100.0 %
Track quality 100.0 %
Test CRC F5F32604
Copy CRC F5F32604
Copy OK

Track 6
Filename E:Music6 – I’m The Urban Spaceman.wav

Pre-gap length 0:00:00.04

Peak level 92.0 %
Track quality 100.0 %
Test CRC D49976CE
Copy CRC D49976CE
Copy OK

Track 7
Filename E:Music7 – Ali Baba’s Camel.wav

Pre-gap length 0:00:01.37

Peak level 98.5 %
Track quality 100.0 %
Test CRC 715F7E18
Copy CRC 715F7E18
Copy OK

Track 8
Filename E:Music8 – Laughing Blues.wav

Pre-gap length 0:00:00.04

Peak level 75.2 %
Track quality 100.0 %
Test CRC 87D1ECD1
Copy CRC 87D1ECD1
Copy OK

Track 9
Filename E:Music9 – By A Waterfall.wav

Pre-gap length 0:00:01.60

Peak level 100.0 %
Track quality 100.0 %
Test CRC F9F3937E
Copy CRC F9F3937E
Copy OK

Track 10
Filename E:Music10 – Mr. Apollo.wav

Pre-gap length 0:00:01.06

Peak level 93.2 %
Track quality 99.9 %
Test CRC 0B2FCAC5
Copy CRC 0B2FCAC5
Copy OK

Track 11
Filename E:Music11 – Canyons Of Your Mind.wav

Pre-gap length 0:00:01.02

Peak level 91.2 %
Track quality 100.0 %
Test CRC 6515CDCC
Copy CRC 6515CDCC
Copy OK

Track 12
Filename E:Music12 – You Done My Brain In.wav

Pre-gap length 0:00:01.13

Peak level 95.9 %
Track quality 100.0 %
Test CRC FCE80201
Copy CRC FCE80201
Copy OK

Track 13
Filename E:Music13 – Keynsham.wav

Pre-gap length 0:00:00.04

Peak level 62.6 %
Track quality 100.0 %
Test CRC B5CDA043
Copy CRC B5CDA043
Copy OK

Track 14
Filename E:Music14 – Quiet Talks And Summer Walks.wav

Pre-gap length 0:00:00.04

Peak level 100.0 %
Track quality 100.0 %
Test CRC ED0B9C3B
Copy CRC ED0B9C3B
Copy OK

Track 15
Filename E:Music15 – Tent.wav

Pre-gap length 0:00:00.02

Peak level 96.4 %
Track quality 100.0 %
Test CRC FE1A0416
Copy CRC FE1A0416
Copy OK

Track 16
Filename E:Music16 – We Were Wrong.wav

Pre-gap length 0:00:00.02

Peak level 98.7 %
Track quality 100.0 %
Test CRC 7D0E8183
Copy CRC 7D0E8183
Copy OK

Track 17
Filename E:Music17 – Joke Shop Man.wav

Pre-gap length 0:00:00.89

Peak level 92.7 %
Track quality 100.0 %
Test CRC 13B29060
Copy CRC 13B29060
Copy OK

Track 18
Filename E:Music18 – The Bride Stripped Bare By ‘Bachelors’.wav

Pre-gap length 0:00:00.80

Peak level 100.0 %
Track quality 100.0 %
Test CRC 95D5268A
Copy CRC 95D5268A
Copy OK

Track 19
Filename E:Music19 – Look At Me I’m Wonderful.wav

Pre-gap length 0:00:00.04

Peak level 82.7 %
Track quality 99.9 %
Test CRC E006D26E
Copy CRC E006D26E
Copy OK

Track 20
Filename E:Music20 – What Do You Do .wav

Pre-gap length 0:00:01.00

Peak level 97.6 %
Track quality 100.0 %
Test CRC 9AE9C6E6
Copy CRC 9AE9C6E6
Copy OK

Track 21
Filename E:Music21 – Mr. Slater’s Parrot.wav

Pre-gap length 0:00:00.04

Peak level 100.0 %
Track quality 100.0 %
Test CRC 5C200C0E
Copy CRC 5C200C0E
Copy OK

Track 22
Filename E:Music22 – Sport (The Odd Boy).wav

Pre-gap length 0:00:00.80

Peak level 100.0 %
Track quality 100.0 %
Test CRC 0C34439B
Copy CRC 0C34439B
Copy OK

Track 23
Filename E:Music23 – I Want To Be With You.wav

Pre-gap length 0:00:00.49

Peak level 98.4 %
Track quality 100.0 %
Test CRC E2CA2DED
Copy CRC E2CA2DED
Copy OK

Track 24
Filename E:Music24 – Noises For The Leg.wav

Pre-gap length 0:00:00.64

Peak level 78.5 %
Track quality 100.0 %
Test CRC C0D4E112
Copy CRC C0D4E112
Copy OK

Track 25
Filename E:Music25 – Busted.wav

Pre-gap length 0:00:01.13

Peak level 100.0 %
Track quality 100.0 %
Test CRC B38CE6B4
Copy CRC B38CE6B4
Copy OK

No errors occured

End of status report

––––––––––––––––––––––––––––––––-

EAC extraction logfile from 29. December 2009, 20:09 for CD
The Bonzo Dog Band / Cornology Vol.3 – Dog Ends

Used drive : HL-DT-STDVDRAM GH22NS50 Adapter: 5 ID: 0
Read mode : Secure with NO C2, accurate stream, disable cache
Read offset correction : 102
Overread into Lead-In and Lead-Out : No

Used output format : Internal WAV Routines
44.100 Hz; 16 Bit; Stereo

Other options :
Fill up missing offset samples with silence : Yes
Delete leading and trailing silent blocks : No
Native Win32 interface for Win NT & 2000

Track 1
Filename E:Music1 – My Brother Makes The Noises For The Talkies.wav

Pre-gap length 0:00:02.42

Peak level 79.5 %
Track quality 99.9 %
Test CRC 393D697C
Copy CRC 393D697C
Copy OK

Track 2
Filename E:Music2 – I’m Going To Bring A Watermelon To My Girl Tonight.wav

Pre-gap length 0:00:01.49

Peak level 71.7 %
Track quality 100.0 %
Test CRC D12D5CD1
Copy CRC D12D5CD1
Copy OK

Track 3
Filename E:Music3 – Alley Oop.wav

Pre-gap length 0:00:01.26

Peak level 70.9 %
Track quality 100.0 %
Test CRC BFDDD839
Copy CRC BFDDD839
Copy OK

Track 4
Filename E:Music4 – Button Up Your Overcoat.wav

Pre-gap length 0:00:01.29

Peak level 76.8 %
Track quality 99.9 %
Test CRC 02B946D6
Copy CRC 02B946D6
Copy OK

Track 5
Filename E:Music5 – Mr. Apollo (Single Version) (German Version).wav

Pre-gap length 0:00:01.66

Peak level 89.6 %
Track quality 100.0 %
Test CRC FE752B6B
Copy CRC FE752B6B
Copy OK

Track 6
Filename E:Music6 – Ready Mades.wav

Pre-gap length 0:00:00.96

Peak level 98.3 %
Track quality 100.0 %
Test CRC BA62C5A0
Copy CRC BA62C5A0
Copy OK

Track 7
Filename E:Music7 – The Strain.wav

Pre-gap length 0:00:01.13

Peak level 100.0 %
Track quality 100.0 %
Test CRC 6BBC2F2D
Copy CRC 6BBC2F2D
Copy OK

Track 8
Filename E:Music8 – Turkeys.wav

Pre-gap length 0:00:01.00

Peak level 72.7 %
Track quality 100.0 %
Test CRC 1A32F436
Copy CRC 1A32F436
Copy OK

Track 9
Filename E:Music9 – King Of Scurf.wav

Pre-gap length 0:00:01.22

Peak level 100.0 %
Track quality 100.0 %
Test CRC 3F3F5B11
Copy CRC 3F3F5B11
Copy OK

Track 10
Filename E:Music10 – Waiting For The Wardrobe.wav

Pre-gap length 0:00:02.06

Peak level 100.0 %
Track quality 100.0 %
Test CRC B91B3357
Copy CRC B91B3357
Copy OK

Track 11
Filename E:Music11 – Straight From The Heart.wav

Pre-gap length 0:00:01.53

Peak level 98.3 %
Track quality 100.0 %
Test CRC EB4DA183
Copy CRC EB4DA183
Copy OK

Track 12
Filename E:Music12 – Rusty (Champion Thrust).wav

Pre-gap length 0:00:00.04

Peak level 82.5 %
Track quality 100.0 %
Test CRC 5E7B23A4
Copy CRC 5E7B23A4
Copy OK

Track 13
Filename E:Music13 – Rawlinson End.wav

Pre-gap length 0:00:01.13

Peak level 93.9 %
Track quality 100.0 %
Test CRC 85C32349
Copy CRC 85C32349
Copy OK

Track 14
Filename E:Music14 – Don’t Get Me Wrong.wav

Pre-gap length 0:00:00.04

Peak level 89.3 %
Track quality 99.9 %
Test CRC 1EBC0BDA
Copy CRC 1EBC0BDA
Copy OK

Track 15
Filename E:Music15 – Fresh Wound.wav

Pre-gap length 0:00:01.24

Peak level 100.0 %
Track quality 99.9 %
Test CRC 58115C0A
Copy CRC 58115C0A
Copy OK

Track 16
Filename E:Music16 – Bad Blood.wav

Pre-gap length 0:00:00.02

Peak level 94.6 %
Track quality 100.0 %
Test CRC 12FA8DB7
Copy CRC 12FA8DB7
Copy OK

Track 17
Filename E:Music17 – Slush.wav

Pre-gap length 0:00:01.89

Peak level 98.9 %
Track quality 99.5 %
Test CRC 225E63F3
Copy CRC 225E63F3
Copy OK

Track 18
Filename E:Music18 – Labio-Dental Fricative – Vivian Stanshall Sean Head Showband.wav

Pre-gap length 0:00:01.82

Peak level 96.2 %
Track quality 100.0 %
Test CRC CEDDD659
Copy CRC CEDDD659
Copy OK

Track 19
Filename E:Music19 – Re-Cycled Vinyl Blues – Neil Innes.wav

Pre-gap length 0:00:01.50

Peak level 99.9 %
Track quality 100.0 %
Test CRC 1F7EDF2D
Copy CRC 1F7EDF2D
Copy OK

Track 20
Filename E:Music20 – Trouser Freak – Roger Ruskin Spear & His Giant Orchestral Wardrobe.wav

Pre-gap length 0:00:01.20

Peak level 89.8 %
Track quality 100.0 %
Test CRC 40BB3ACD
Copy CRC 40BB3ACD
Copy OK

No errors occured

End of status report

cuetools reports:
[CUETools log; Date: 2017. 01. 10. 10:56:51; Version: 2.1.6]
Pregap length 00:00:32.
[CTDB TOCID: eb71NnWt0GlOoqpv.DR7.ZixpDI-] found.
Track | CTDB Status
1 | (10/10) Accurately ripped
2 | (10/10) Accurately ripped
3 | (10/10) Accurately ripped
4 | (10/10) Accurately ripped
5 | (10/10) Accurately ripped
6 | (10/10) Accurately ripped
7 | (10/10) Accurately ripped
8 | (10/10) Accurately ripped
9 | (10/10) Accurately ripped
10 | (10/10) Accurately ripped
11 | (10/10) Accurately ripped
12 | (10/10) Accurately ripped
13 | (10/10) Accurately ripped
14 | (10/10) Accurately ripped
15 | (10/10) Accurately ripped
16 | (10/10) Accurately ripped
17 | (10/10) Accurately ripped
18 | (10/10) Accurately ripped
19 | (10/10) Accurately ripped
20 | (10/10) Accurately ripped
21 | (10/10) Accurately ripped
22 | (10/10) Accurately ripped
23 | (10/10) Accurately ripped
24 | (10/10) Accurately ripped
25 | (10/10) Accurately ripped
26 | (10/10) Accurately ripped
27 | ( 9/10) Accurately ripped
[AccurateRip ID: 0040b02f-04ff963e-7b11131b] found.
Track [ CRC | V2 ] Status
01 [f6cf0d21|1a53df4b] (00+00/28) No match
02 [72e46492|30eb3afc] (00+00/29) No match
03 [679914ec|c50e7988] (00+00/30) No match
04 [057253df|e79d6a9f] (00+00/30) No match
05 [d3dc6839|d7d0ecf6] (00+00/30) No match
06 [47eba42c|b0487934] (00+00/30) No match
07 [510989e7|c28a3325] (00+00/30) No match
08 [35b1cb3f|c930403b] (00+00/29) No match
09 [8f3f5c42|bdec26d3] (00+00/29) No match
10 [8ec58dff|bc5157b4] (00+00/30) No match
11 [604913a6|01cb47ec] (00+00/29) No match
12 [ec664c3b|57ab9e73] (00+00/30) No match
13 [08b8186d|f2873ff7] (00+00/30) No match
14 [6634887c|a548aa3b] (00+00/29) No match
15 [2f48d2e4|0bceab28] (00+00/29) No match
16 [04f9f17b|9a207330] (00+00/30) No match
17 [945c82a7|31c1b615] (00+00/30) No match
18 [68280771|f8efd02e] (00+00/29) No match
19 [115d96a9|797c1118] (00+00/30) No match
20 [3726476b|b779dee0] (00+00/30) No match
21 [5c433c6f|2ae3ace8] (00+00/30) No match
22 [cf7430fc|b7c7c72b] (00+00/30) No match
23 [f4854b76|6657ae1a] (00+00/29) No match
24 [8195c578|e89ac610] (00+00/30) No match
25 [8ac964ac|779d85d3] (00+00/30) No match
26 [f7abd791|3282a303] (00+00/29) No match
27 [197ff0d1|40b37b25] (00+00/29) No match
Offsetted by 565:
01 [d2264f24] (10/28) Accurately ripped
02 [fdd21603] (11/29) Accurately ripped
03 [e00a6402] (11/30) Accurately ripped
04 [18afd2ac] (11/30) Accurately ripped
05 [80706fef] (11/30) Accurately ripped
06 [148c3f99] (11/30) Accurately ripped
07 [26277669] (11/30) Accurately ripped
08 [2ad3ac34] (10/29) Accurately ripped
09 [9c2ca409] (10/29) Accurately ripped
10 [5d515dbb] (11/30) Accurately ripped
11 [3ed0d0a0] (10/29) Accurately ripped
12 [449fa90b] (11/30) Accurately ripped
13 [c07967c1] (11/30) Accurately ripped
14 [75586a7a] (10/29) Accurately ripped
15 [f35d61a0] (10/29) Accurately ripped
16 [6cf9c085] (11/30) Accurately ripped
17 [c6a8fb9a] (11/30) Accurately ripped
18 [73c1541c] (10/29) Accurately ripped
19 [9164d914] (11/30) Accurately ripped
20 [0bcad3d2] (11/30) Accurately ripped
21 [ced72866] (11/30) Accurately ripped
22 [50b8c815] (11/30) Accurately ripped
23 [d90ac8a7] (10/29) Accurately ripped
24 [459a02bb] (11/30) Accurately ripped
25 [44df5e44] (11/30) Accurately ripped
26 [0caef2f4] (10/29) Accurately ripped
27 [e2ba6185] (10/29) Accurately ripped
Offsetted by 575:
01 [7925968a] (00/28) No match (V2 was not tested)
02 [be949805] (00/29) No match (V2 was not tested)
03 [2aaafaee] (00/30) No match (V2 was not tested)
04 [1b4af6e6] (00/30) No match (V2 was not tested)
05 [91162c1b] (00/30) No match (V2 was not tested)
06 [7e1dd113] (00/30) No match (V2 was not tested)
07 [573c61ad] (00/30) No match (V2 was not tested)
08 [45d201be] (00/29) No match (V2 was not tested)
09 [4d1c7377] (00/29) No match (V2 was not tested)
10 [82f4b0b3] (00/30) No match (V2 was not tested)
11 [8fc7e3d4] (00/29) No match (V2 was not tested)
12 [6cb2ccab] (00/30) No match (V2 was not tested)
13 [722b44e9] (00/30) No match (V2 was not tested)
14 [db8f6c36] (00/29) No match (V2 was not tested)
15 [26691298] (00/29) No match (V2 was not tested)
16 [5a6d49d9] (00/30) No match (V2 was not tested)
17 [e0787ee0] (00/30) No match (V2 was not tested)
18 [c0fcadd2] (00/29) No match (V2 was not tested)
19 [aa50964a] (00/30) No match (V2 was not tested)
20 [0b066080] (00/30) No match (V2 was not tested)
21 [26f4f634] (00/30) No match (V2 was not tested)
22 [15d77267] (00/30) No match (V2 was not tested)
23 [e3e21a29] (00/29) No match (V2 was not tested)
24 [58ede8a1] (00/30) No match (V2 was not tested)
25 [e2381c74] (00/30) No match (V2 was not tested)
26 [f8aa791a] (00/29) No match (V2 was not tested)
27 [6bf40d6d] (00/29) No match (V2 was not tested)

Track Peak [ CRC32 ] [W/O NULL] [ LOG ]
– 100,0 [C376AEAD] [B7B8BCF3]
01 94,6 [E4006778] [AD569C53] CRC32
02 100,0 [6AC4521A] [44B91AEA] CRC32
03 82,0 [D5B41545] [2745FD67] CRC32
04 90,7 [0FC3D0C1] [DD08191F] CRC32
05 95,6 [AFB03169] [CEA26615] CRC32
06 82,2 [F8D844B7] [4F2DD72A] CRC32
07 92,6 [92B51E2D] [2BFA6B4A] CRC32
08 91,3 [F9FA4F5B] [0248696E] CRC32
09 100,0 [5DBBFA6F] [74CF7A20] CRC32
10 96,2 [BB613AFC] [33BAB5E0] CRC32
11 89,1 [48646F9E] [5ABEB35F] CRC32
12 91,7 [C8F941B7] [3237BAAE] CRC32
13 100,0 [A6AB29B5] [46AEB899] CRC32
14 92,2 [4E735BD7] [1A5724E5] CRC32
15 87,7 [5036400C] [4DE49398] CRC32
16 84,2 [D22C38C8] [E90144FF] CRC32
17 91,8 [131CF34B] [49C1CA41] CRC32
18 88,1 [2F3E9068] [98184BD8] CRC32
19 93,3 [BD5B14E0] [F0A20FFD] CRC32
20 100,0 [7BB50D80] [D6D65BF9] CRC32
21 88,8 [6DF1EA64] [0402D3DA] CRC32
22 70,7 [E0137A0E] [C32A01B8] CRC32
23 83,0 [44D04F26] [42A27232] CRC32
24 91,6 [E7034551] [34D63C0B] CRC32
25 98,2 [38AAD3BC] [74BB7E1C] CRC32
26 100,0 [C6850299] [532C4369] CRC32
27 100,0 [A245204B] [9FC2E9CA] CRC32

–-

[CUETools log; Date: 2017. 01. 10. 11:37:13; Version: 2.1.6]
Pregap length 00:00:32.
[CTDB TOCID: byL80EvKKPUtnGYZU5jS5un1aH4-] found.
Track | CTDB Status
1 | (15/15) Accurately ripped
2 | (15/15) Accurately ripped
3 | (15/15) Accurately ripped
4 | (14/15) Accurately ripped
5 | (15/15) Accurately ripped
6 | (14/15) Accurately ripped
7 | (15/15) Accurately ripped
8 | (15/15) Accurately ripped
9 | (15/15) Accurately ripped
10 | (15/15) Accurately ripped
11 | (15/15) Accurately ripped
12 | (15/15) Accurately ripped
13 | (15/15) Accurately ripped
14 | (15/15) Accurately ripped
15 | (15/15) Accurately ripped
16 | (15/15) Accurately ripped
17 | (15/15) Accurately ripped
18 | (15/15) Accurately ripped
19 | (15/15) Accurately ripped
20 | (15/15) Accurately ripped
21 | (15/15) Accurately ripped
22 | (15/15) Accurately ripped
23 | (15/15) Accurately ripped
24 | (15/15) Accurately ripped
25 | (15/15) Accurately ripped
[AccurateRip ID: 00431bc7-04a93d8b-94115e19] found.
Track [ CRC | V2 ] Status
01 [cb4b618d|f12d66cc] (00+00/54) No match
02 [716699bf|fd18c302] (00+00/56) No match
03 [3163e4af|13fb16e6] (00+00/56) No match
04 [1a3e4eb8|54bc6768] (00+00/56) No match
05 [28f38560|7d25f9ac] (00+00/57) No match
06 [59562f17|2cb9ae6f] (00+00/57) No match
07 [085a7758|f30fcb36] (00+00/57) No match
08 [b349eecd|83b7a9cb] (00+00/55) No match
09 [bab63237|548d9b93] (00+00/51) No match
10 [a0a16dd5|34621b9b] (00+00/55) No match
11 [9992c4fc|b1dc9a51] (00+00/56) No match
12 [864f0d7d|c7f2bd41] (00+00/56) No match
13 [e57c3c4a|23b59b22] (00+00/55) No match
14 [9e99e19d|c87256df] (00+00/56) No match
15 [fdde702e|768026bf] (00+00/57) No match
16 [970740f9|5a5f7d19] (00+00/55) No match
17 [54c98787|d0aa90f8] (00+00/56) No match
18 [74a7994c|c01a5057] (00+00/56) No match
19 [732a94c2|b8e5211a] (00+00/55) No match
20 [ab49e5ca|8695f60b] (00+00/55) No match
21 [0ad54278|9f3504c9] (00+00/52) No match
22 [086a10cd|37ee4632] (00+00/53) No match
23 [812d97de|ef14c4ae] (00+00/56) No match
24 [eda541d5|18d4cb02] (00+00/56) No match
25 [e82edfed|a42c391a] (00+00/53) No match
Offsetted by -207:
01 [fd292263] (09/54) Accurately ripped
02 [05efb191] (09/56) Accurately ripped
03 [076ee584] (09/56) Accurately ripped
04 [ae451f9b] (09/56) Accurately ripped
05 [ef463ce0] (09/57) Accurately ripped
06 [424df0e4] (09/57) Accurately ripped
07 [6601ee30] (09/57) Accurately ripped
08 [9d21dc8b] (09/55) Accurately ripped
09 [fb88eee7] (09/51) Accurately ripped
10 [b01cab37] (09/55) Accurately ripped
11 [62c2202c] (09/56) Accurately ripped
12 [3493bb10] (09/56) Accurately ripped
13 [4e4b137c] (09/55) Accurately ripped
14 [c81dc4e5] (09/56) Accurately ripped
15 [0adbd40e] (09/57) Accurately ripped
16 [4cec0294] (09/55) Accurately ripped
17 [82c769fd] (09/56) Accurately ripped
18 [1e1b5802] (09/56) Accurately ripped
19 [2768f067] (08/55) Accurately ripped
20 [5fe5dfe9] (10/55) Accurately ripped
21 [642bca7d] (08/52) Accurately ripped
22 [a123fc3f] (09/53) Accurately ripped
23 [07061ef1] (09/56) Accurately ripped
24 [0408bcf8] (09/56) Accurately ripped
25 [75649056] (09/53) Accurately ripped
Offsetted by 565:
01 [99c1973b] (14/54) Accurately ripped
02 [213bd959] (16/56) Accurately ripped
03 [2bf30018] (16/56) Accurately ripped
04 [712f69e7] (16/56) Accurately ripped
05 [53c86151] (16/57) Accurately ripped
06 [4ca729a7] (16/57) Accurately ripped
07 [fc02018a] (16/57) Accurately ripped
08 [9ebccc51] (15/55) Accurately ripped
09 [4f08eda7] (14/51) Accurately ripped
10 [c7ff6d3f] (16/55) Accurately ripped
11 [391538ec] (16/56) Accurately ripped
12 [26e7ac91] (16/56) Accurately ripped
13 [e8fbb5ef] (16/55) Accurately ripped
14 [d9ef75fd] (16/56) Accurately ripped
15 [a25d473e] (16/57) Accurately ripped
16 [b5901878] (15/55) Accurately ripped
17 [fc5b0d55] (15/56) Accurately ripped
18 [c65757af] (16/56) Accurately ripped
19 [83359656] (16/55) Accurately ripped
20 [efca3625] (16/55) Accurately ripped
21 [01f6add1] (15/52) Accurately ripped
22 [fe6e9a87] (15/53) Accurately ripped
23 [e261adfd] (16/56) Accurately ripped
24 [bbaac044] (16/56) Accurately ripped
25 [e26d563a] (15/53) Accurately ripped
Offsetted by -99:
01 [3c2fdf2b] (02/54) Accurately ripped
02 [32dfd1a9] (02/56) Accurately ripped
03 [601b3e20] (02/56) Accurately ripped
04 [774cb29f] (02/56) Accurately ripped
05 [c08492e2] (02/57) Accurately ripped
06 [d9e4c4be] (02/57) Accurately ripped
07 [e2e567cc] (02/57) Accurately ripped
08 [5784b87b] (02/55) Accurately ripped
09 [54261d27] (02/51) Accurately ripped
10 [9ce7800f] (02/55) Accurately ripped
11 [47b48c6c] (02/56) Accurately ripped
12 [32199fb1] (02/56) Accurately ripped
13 [ff8c0690] (02/55) Accurately ripped
14 [07c8dc22] (02/56) Accurately ripped
15 [830e9c8b] (02/57) Accurately ripped
16 [15062885] (02/55) Accurately ripped
17 [da166e45] (02/56) Accurately ripped
18 [702480f7] (02/56) Accurately ripped
19 [fc073fbe] (02/55) Accurately ripped
20 [eb67f93d] (00/55) No match (V2 was not tested)
21 [4bd21f59] (00/52) No match (V2 was not tested)
22 [c0c2fbd7] (00/53) No match (V2 was not tested)
23 [d773c235] (02/56) Accurately ripped
24 [19be92fc] (02/56) Accurately ripped
25 [f410e662] (02/53) Accurately ripped

Track Peak [ CRC32 ] [W/O NULL] [ LOG ]
– 100,0 [A9166A02] [AA7C0F99]
01 95,1 [486E4018] [C698C10B] CRC32
02 88,2 [8C581AA5] [4EFA418C] CRC32
03 79,1 [9CE470DD] [C2A53312] CRC32
04 83,2 [57226E8D] [3448109F] CRC32
05 100,0 [F5F32604] [B0EC77A5] CRC32
06 92,0 [D49976CE] [D112D698] CRC32
07 98,5 [715F7E18] [771C8CA2] CRC32
08 75,2 [87D1ECD1] [02A00B20] CRC32
09 100,0 [F9F3937E] [404B0A07] CRC32
10 93,2 [0B2FCAC5] [8E80506D] CRC32
11 91,2 [6515CDCC] [6C9A889F] CRC32
12 95,9 [FCE80201] [5E1D132C] CRC32
13 62,6 [B5CDA043] [20FC9D28] CRC32
14 100,0 [ED0B9C3B] [09AC163B] CRC32
15 96,4 [FE1A0416] [0B3D9D1B] CRC32
16 98,7 [7D0E8183] [88CD3731] CRC32
17 92,7 [13B29060] [9F9009C1] CRC32
18 100,0 [95D5268A] [33909823] CRC32
19 82,7 [E006D26E] [AA41932D] CRC32
20 97,6 [9AE9C6E6] [A166C5AF] CRC32
21 100,0 [5C200C0E] [99016292] CRC32
22 100,0 [0C34439B] [18098092] CRC32
23 98,4 [E2CA2DED] [85AEC104] CRC32
24 78,5 [C0D4E112] [78B4BF24] CRC32
25 100,0 [B38CE6B4] [4F74B2DE] CRC32

–-

[CUETools log; Date: 2017. 01. 10. 11:37:46; Version: 2.1.6]
Pregap length 00:00:32.
[CTDB TOCID: sCPuaBMcII5myX82RyOeHfEaaE4-] found.
Track | CTDB Status
1 | (6/6) Accurately ripped
2 | (6/6) Accurately ripped
3 | (6/6) Accurately ripped
4 | (6/6) Accurately ripped
5 | (6/6) Accurately ripped
6 | (6/6) Accurately ripped
7 | (6/6) Accurately ripped
8 | (6/6) Accurately ripped
9 | (6/6) Accurately ripped
10 | (6/6) Accurately ripped
11 | (6/6) Accurately ripped
12 | (6/6) Accurately ripped
13 | (6/6) Accurately ripped
14 | (6/6) Accurately ripped
15 | (6/6) Accurately ripped
16 | (6/6) Accurately ripped
17 | (6/6) Differs in 4 samples @02:15:00,02:15:39
18 | (6/6) Accurately ripped
19 | (6/6) Accurately ripped
20 | (6/6) Accurately ripped
[AccurateRip ID: 00346136-031c3e87-14120c14] found.
Track [ CRC | V2 ] Status
01 [8c39b0ac|1aa590cb] (00+00/29) No match
02 [53f13c81|189c4071] (00+00/30) No match
03 [b6ace2d3|14136243] (00+00/30) No match
04 [b856162d|454a8494] (00+00/30) No match
05 [b868234d|dbbf43a9] (00+00/30) No match
06 [379e0f67|efb2ff5c] (00+00/30) No match
07 [2115b57f|7c152d8a] (00+00/29) No match
08 [bd41c82a|c9a0f822] (00+00/30) No match
09 [30d570bc|7da444e9] (00+00/29) No match
10 [d11757bb|92245e12] (00+00/30) No match
11 [20e0def7|119400ef] (00+00/29) No match
12 [ba2d72b5|fe53b8b9] (00+00/29) No match
13 [9a306800|6636fb21] (00+00/30) No match
14 [f0d2fc73|fc63e6be] (00+00/30) No match
15 [f6cc9536|f0fa09e3] (00+00/29) No match
16 [e3527646|624f33e9] (00+00/29) No match
17 [42e46b9e|96860192] (00+00/30) No match
18 [3f4f9741|b96ea07d] (00+00/30) No match
19 [6eca2c11|88fcaacd] (00+00/29) No match
20 [8eb5dd07|67c502a2] (00+00/30) No match
Offsetted by 565:
01 [1bd80fd6] (05/29) Accurately ripped
02 [96d5b0a0] (05/30) Accurately ripped
03 [57d074a7] (05/30) Accurately ripped
04 [26e94fc3] (05/30) Accurately ripped
05 [3c458271] (05/30) Accurately ripped
06 [d35a0665] (05/30) Accurately ripped
07 [16d4772d] (05/29) Accurately ripped
08 [2e20b19d] (05/30) Accurately ripped
09 [f3cd330e] (05/29) Accurately ripped
10 [878f72e8] (05/30) Accurately ripped
11 [eb29fd53] (05/29) Accurately ripped
12 [263a1a09] (05/29) Accurately ripped
13 [9e427536] (05/30) Accurately ripped
14 [52ad0ee9] (05/30) Accurately ripped
15 [6ee52bd8] (05/29) Accurately ripped
16 [76df385c] (05/29) Accurately ripped
17 [c6d36399] (00/30) No match (V2 was not tested)
18 [0d1909b2] (05/30) Accurately ripped
19 [7d38ffd2] (05/29) Accurately ripped
20 [33eed180] (05/30) Accurately ripped
Offsetted by 1229:
01 [64922f06] (05/29) Accurately ripped
02 [07e22c68] (06/30) Accurately ripped
03 [c2b97707] (06/30) Accurately ripped
04 [9648da93] (06/30) Accurately ripped
05 [d899de51] (06/30) Accurately ripped
06 [597077f5] (06/30) Accurately ripped
07 [a548cf3d] (05/29) Accurately ripped
08 [bcbe73c5] (06/30) Accurately ripped
09 [0df1bafe] (05/29) Accurately ripped
10 [199593c0] (06/30) Accurately ripped
11 [15a8b6e4] (05/29) Accurately ripped
12 [aa2042b8] (05/29) Accurately ripped
13 [fbffb99f] (06/30) Accurately ripped
14 [cfa34f84] (06/30) Accurately ripped
15 [cb2cb020] (05/29) Accurately ripped
16 [98eca86c] (05/29) Accurately ripped
17 [f3c62b81] (00/30) No match (V2 was not tested)
18 [8cc32d6a] (06/30) Accurately ripped
19 [a632dd0a] (05/29) Accurately ripped
20 [4ca5bef8] (06/30) Accurately ripped

Track Peak [ CRC32 ] [W/O NULL] [ LOG ]
– 100,0 [77048555] [906B3F0F]
01 79,5 [393D697C] [4AC660D1] CRC32
02 71,7 [D12D5CD1] [69276CB0] CRC32
03 70,9 [BFDDD839] [9F270C80] CRC32
04 76,8 [02B946D6] [EEEC65D8] CRC32
05 89,6 [FE752B6B] [3A6E2F4D] CRC32
06 98,3 [BA62C5A0] [C614A813] CRC32
07 100,0 [6BBC2F2D] [37A1C00F] CRC32
08 72,7 [1A32F436] [46B038EC] CRC32
09 100,0 [3F3F5B11] [35378C70] CRC32
10 100,0 [B91B3357] [2B20A021] CRC32
11 98,3 [EB4DA183] [BB62835A] CRC32
12 82,5 [5E7B23A4] [F902BD36] CRC32
13 93,9 [85C32349] [33033174] CRC32
14 89,3 [1EBC0BDA] [97CC248F] CRC32
15 100,0 [58115C0A] [07EF36A7] CRC32
16 94,6 [12FA8DB7] [AAF2491C] CRC32
17 98,9 [225E63F3] [D7C015F6] CRC32
18 96,2 [CEDDD659] [3F261E8D] CRC32
19 99,9 [1F7EDF2D] [D6EE8255] CRC32
20 89,8 [40BB3ACD] [1F681391] CRC32

original uploader unknown

The Bonzo Dog Band – Cornology (1992) Download, Warez, DDL, Free, Full Album, Torrent, Legal.

Download


  • Recent Posts

  • Recent Tags