The Beach Boys – Keepin' The Summer Alive (1980) {Reissue, Remastered}

Download
The Beach Boys - Keepin' The Summer Alive (1980) {Reissue, Remastered}

The Beach Boys – Keepin’ The Summer Alive (1980) {Reissue, Remastered}
EAC Rip | FLAC (Img) + Cue + Log ~ 236 Mb | MP3 CBR320 ~ 103 Mb
Scans Included (JPG, 600 dpi) | RAR 5% Recovery
Pop Rock | Caribou Records / Epic Associated / Brother Records #ZK 36283

Released in March 1980, "Keepin’ the Summer Alive" is the twenty-fourth studio album by The Beach Boys, their first released in the 1980s, and their second release under their contract with CBS Records.

The band took a small break to re-think the project, with Bruce Johnston taking complete control of the album’s production, and placing the songs in a more contemporary-sounding context. The album ended up as a mixture of brand new songs and older songs from the archives that hadn’t been released. The older songs date back to 1970 ("When Girls Get Together"), 1972 ("Endless Harmony", the only track on the album where Dennis is heard) and 1978 ("Santa Ana Winds").

"Keepin’ the Summer Alive" reached #75 in the U.S. and #54 in the UK. This would become the last Beach Boys album to feature Dennis Wilson since he died in 1983.

Official Website | Wiki | Discogs | All Music

***************

The Beach Boys - Keepin' The Summer Alive (1980) {Reissue, Remastered}

Track List:

01. Keepin’ The Summer Alive [0:03:43.62]
02. Oh Darlin’ [0:03:55.15]
03. Some Of Your Love [0:02:37.33]
04. Livin’ With A Heartache [0:04:06.05]
05. School Days [0:02:52.45]
06. Goin’ On [0:03:04.62]
07. Sunshine [0:02:53.55]
08. When Girls Get Together [0:03:33.50]
09. Santa Ana Winds [0:03:16.13]
10. Endless Harmony [0:03:07.60]

EAC Log
Exact Audio Copy V1.0 beta 3 from 29. August 2011

EAC extraction logfile from 16. July 2014, 7:42

The Beach Boys / Keepin’ the Summer Alive

Used drive : ATAPI iHAS124 D Adapter: 0 ID: 2

Read mode : Secure
Utilize accurate stream : Yes
Defeat audio cache : Yes
Make use of C2 pointers : No

Read offset correction : 6
Overread into Lead-In and Lead-Out : No
Fill up missing offset samples with silence : Yes
Delete leading and trailing silent blocks : No
Null samples used in CRC calculations : Yes
Used interface : Installed external ASPI interface

Used output format : User Defined Encoder
Selected bitrate : 1024 kBit/s
Quality : High
Add ID3 tag : No
Command line compressor : C:Program Files (x86)Exact Audio CopyFlacflac.exe
Additional command line options : -6 -V -T "ARTIST=%artist%" -T "TITLE=%title%" -T "ALBUM=%albumtitle%" -T "DATE=%year%" -T "TRACKNUMBER=%tracknr%" -T "GENRE=%genre%" -T "COMMENT=%comment%" -T "BAND=%albuminterpret%" -T "COMPOSER=%composer%" %haslyrics%–tag-from-file=LYRICS="%lyricsfile%"%haslyrics% -T "DISCNUMBER=%cdnumber%" -T "TOTALDISCS=%totalcds%" -T "TOTALTRACKS=%numtracks%" %hascover%–picture="%coverfile%"%hascover% %source% -o %dest%

TOC of the extracted CD

Track | Start | Length | Start sector | End sector
––––––––––––––––––––––––––––-
1 | 0:00.00 | 3:43.62 | 0 | 16786
2 | 3:43.62 | 3:55.15 | 16787 | 34426
3 | 7:39.02 | 2:37.33 | 34427 | 46234
4 | 10:16.35 | 4:06.05 | 46235 | 64689
5 | 14:22.40 | 2:52.45 | 64690 | 77634
6 | 17:15.10 | 3:04.62 | 77635 | 91496
7 | 20:19.72 | 2:53.55 | 91497 | 104526
8 | 23:13.52 | 3:33.50 | 104527 | 120551
9 | 26:47.27 | 3:16.13 | 120552 | 135264
10 | 30:03.40 | 3:07.60 | 135265 | 149349

Range status and errors

Selected range

Filename C:mmThe Beach Boys1980 – Keepin’ The Summer Alive [ZK 36283]The Beach Boys – Keepin’ the Summer Alive.wav

Peak level 98.8 %
Extraction speed 2.7 X
Range quality 99.9 %
Test CRC A4AA877F
Copy CRC A4AA877F
Copy OK

No errors occurred

AccurateRip summary

Track 1 accurately ripped (confidence 4) [1AEFE2BC] (AR v2)
Track 2 accurately ripped (confidence 4) [6678E169] (AR v2)
Track 3 accurately ripped (confidence 4) [9F0A1006] (AR v2)
Track 4 accurately ripped (confidence 4) [98D606AC] (AR v2)
Track 5 accurately ripped (confidence 4) [8728331B] (AR v2)
Track 6 accurately ripped (confidence 4) [7122351D] (AR v2)
Track 7 accurately ripped (confidence 4) [AFE6F87E] (AR v2)
Track 8 accurately ripped (confidence 4) [E6A0E212] (AR v2)
Track 9 accurately ripped (confidence 4) [EE4CFCF2] (AR v2)
Track 10 accurately ripped (confidence 4) [F194F980] (AR v2)

All tracks accurately ripped

End of status report

DR Log
foobar2000 1.2.6 / Dynamic Range Meter 1.1.1
log date: 2017-02-11 01:28:41

––––––––––––––––––––––––––––––––––––––––
Analyzed: The Beach Boys / Keepin’ the Summer Alive
––––––––––––––––––––––––––––––––––––––––

DR Peak RMS Duration Track
––––––––––––––––––––––––––––––––––––––––
DR13 -0.60 dB -15.59 dB 3:44 01-Keepin’ The Summer Alive
DR13 -0.60 dB -15.90 dB 3:55 02-Oh Darlin’
DR12 -0.60 dB -14.56 dB 2:37 03-Some Of Your Love
DR11 -0.10 dB -12.86 dB 4:06 04-Livin’ With A Heartache
DR11 -0.60 dB -12.95 dB 2:53 05-School Days
DR11 -0.60 dB -14.06 dB 3:05 06-Goin’ On
DR12 -0.60 dB -14.79 dB 2:54 07-Sunshine
DR10 -0.62 dB -13.78 dB 3:34 08-When Girls Get Together
DR12 -0.60 dB -14.94 dB 3:16 09-Santa Ana Winds
DR11 -0.60 dB -17.25 dB 3:08 10-Endless Harmony
––––––––––––––––––––––––––––––––––––––––

Number of tracks: 10
Official DR value: DR12

Samplerate: 44100 Hz
Channels: 2
Bits per sample: 16
Bitrate: 855 kbps
Codec: FLAC
================================================================================

CUETools Log
[CUETools log; Date: 11.02.2017 1:28:49; Version: 2.1.5]
[CTDB TOCID: 56TNKodgGe5.lm8lTtZlffs0ULc-] found.
Track | CTDB Status
1 | (8/8) Accurately ripped
2 | (8/8) Accurately ripped
3 | (8/8) Accurately ripped
4 | (8/8) Accurately ripped
5 | (8/8) Accurately ripped
6 | (8/8) Accurately ripped
7 | (8/8) Accurately ripped
8 | (8/8) Accurately ripped
9 | (8/8) Accurately ripped
10 | (8/8) Accurately ripped
[AccurateRip ID: 000cd505-0065bfbb-7807c70a] found.
Track [ CRC | V2 ] Status
01 [97f69bd1|1aefe2bc] (0+6/6) Accurately ripped
02 [5d909c87|6678e169] (0+6/6) Accurately ripped
03 [916e8172|9f0a1006] (0+6/6) Accurately ripped
04 [5e16f13f|98d606ac] (0+6/6) Accurately ripped
05 [bc0891fd|8728331b] (0+6/6) Accurately ripped
06 [a98306fc|7122351d] (0+6/6) Accurately ripped
07 [f1e8125b|afe6f87e] (0+6/6) Accurately ripped
08 [5b65e35b|e6a0e212] (0+6/6) Accurately ripped
09 [e36ccf2e|ee4cfcf2] (0+6/6) Accurately ripped
10 [8a364831|f194f980] (0+6/6) Accurately ripped

Track Peak [ CRC32 ] [W/O NULL] [ LOG ]
– 98,8 [A4AA877F] [441D1031] CRC32
01 93,3 [85676423] [6D8B4019]
02 93,3 [843A398C] [1083B6BA]
03 93,3 [506D92E9] [2979D004]
04 98,8 [C8F6AE74] [80C83110]
05 93,3 [39CC97A8] [DCD5B2B5]
06 93,3 [E249DF9C] [FE063C3A]
07 93,3 [3A97D080] [177C9E96]
08 93,1 [97650019] [68A089BB]
09 93,3 [2C15604A] [0F7384E6]
10 93,3 [8A48CF08] [582F2D85]

The Beach Boys - Keepin' The Summer Alive (1980) {Reissue, Remastered}

The Beach Boys - Keepin' The Summer Alive (1980) {Reissue, Remastered}

See also:
The Beach Boys – The Beach Boys Golden Hits (1991) [Japan, Toshiba-EMI TOCP-6773]

All thanks go to sergych

> Visit my blog <

The Beach Boys – Keepin' The Summer Alive (1980) {Reissue, Remastered} Download, Warez, DDL, Free, Full Album, Torrent, Legal.

Download