The Bad Plus – The Bad Plus (2001) {Fresh Sound New Talent}

Download
The Bad Plus - The Bad Plus (2001) {Fresh Sound New Talent}

The Bad Plus – The Bad Plus (2001) {Fresh Sound New Talent}
EAC rip (secure mode) | FLAC (tracks)+CUE+LOG -> 284 Mb | MP3 @320 -> 105 Mb
Full Artwork @ 300 dpi (png) -> 29 Mb | 5% repair rar
© 2001 Fresh Sound Records | Fresh Sound New Talent Series | FSNT 107
Jazz / Post Bop / Post Modern Jazz / Piano Trio

Pianist Ethan Iverson, bassist Reid Anderson, and Minneapolis-based drummer David King are the Bad Plus, and they bill themselves as "the loudest piano trio ever." Upon hearing them play, one is not inclined to quibble. In any case, they’re certainly the only jazz group to cover ABBA’s "Knowing Me, Knowing You," Nirvana’s "Smells Like Teen Spirit," and Rodgers & Hart’s "Blue Moon" on the same disc. Iverson and Anderson each contribute two previously unrecorded originals. King, for his part, penned the persistently grooving "1972 Bronze Medalist."

Loud they may be, they’re also finely attuned to dynamic contrasts, particularly on Anderson’s "The Breakout." Listeners never quite know what they’re going to hear. A minor example: King’s startlingly thunderous drum fill right before Anderson’s bass solo on the closing track, "Love Is the Answer." A major example: the brilliant Nirvana cover, offered with a totally straight face, in which the famous opening guitar riff is transformed into a series of almost plodding half notes – and that’s just the start of it.

The Bad Plus - The Bad Plus (2001) {Fresh Sound New Talent}

Personnel:
Ethan Iverson – piano
Reid Anderson – bass
David King – drums

tracklist:
01 – Knowing Me, Knowing You
02 – Blue Moon
03 – 1972 Bronze Medalist
04 – The Breakout
05 – Smells Like Teen Spirit
06 – Labyrinth
07 – Scurry
08 – Love Is The Answer

EAC log
EAC extraction logfile from 16. January 2008, 20:08 for CD
The Bad Plus / The Bad Plus

Used drive : HP DVD Writer 640v Adapter: 7 ID: 2
Read mode : Secure with NO C2, accurate stream, disable cache
Read offset correction : 618
Overread into Lead-In and Lead-Out : No

Used output format : G:Program FilesMEDIAfiltersFlac officialFLACflac.exe (User Defined Encoder)
192 kBit/s
Additional command line options : -8 -V -T "ARTIST=%a" -T "TITLE=%t" -T "ALBUM=%g" -T "DATE=%y" -T "TRACKNUMBER=%n" -T "GENRE=%m" -T "COMMENT=EAC FLAC -8" %s

Other options :
Fill up missing offset samples with silence : Yes
Delete leading and trailing silent blocks : No
Installed external ASPI interface

Track 1
Filename F:uTORRENTupsThe Bad Plus – The Bad Plus (2001) [FLAC]1 – Knowing Me, Knowing You.wav

Pre-gap length 0:00:02.00

Peak level 100.0 %
Track quality 100.0 %
Test CRC 2346F2AF
Copy CRC 2346F2AF
Copy OK

Track 2
Filename F:uTORRENTupsThe Bad Plus – The Bad Plus (2001) [FLAC]2 – Blue Moon.wav

Pre-gap length 0:00:03.65

Peak level 100.0 %
Track quality 100.0 %
Test CRC ED09CF3A
Copy CRC ED09CF3A
Copy OK

Track 3
Filename F:uTORRENTupsThe Bad Plus – The Bad Plus (2001) [FLAC]3 – 1972 Bronze Medalist.wav

Pre-gap length 0:00:03.65

Peak level 100.0 %
Track quality 99.9 %
Test CRC B563F94C
Copy CRC B563F94C
Copy OK

Track 4
Filename F:uTORRENTupsThe Bad Plus – The Bad Plus (2001) [FLAC]4 – The Breakout.wav

Pre-gap length 0:00:03.65

Peak level 100.0 %
Track quality 100.0 %
Test CRC A369820C
Copy CRC A369820C
Copy OK

Track 5
Filename F:uTORRENTupsThe Bad Plus – The Bad Plus (2001) [FLAC]5 – Smells Like Teen Spirit.wav

Pre-gap length 0:00:03.65

Peak level 100.0 %
Track quality 100.0 %
Test CRC F04F0F6C
Copy CRC F04F0F6C
Copy OK

Track 6
Filename F:uTORRENTupsThe Bad Plus – The Bad Plus (2001) [FLAC]6 – Labyrinth.wav

Pre-gap length 0:00:03.65

Peak level 73.3 %
Track quality 100.0 %
Test CRC B38DF71E
Copy CRC B38DF71E
Copy OK

Track 7
Filename F:uTORRENTupsThe Bad Plus – The Bad Plus (2001) [FLAC]7 – Scurry.wav

Pre-gap length 0:00:03.65

Peak level 100.0 %
Track quality 100.0 %
Test CRC 07C7792B
Copy CRC 07C7792B
Copy OK

Track 8
Filename F:uTORRENTupsThe Bad Plus – The Bad Plus (2001) [FLAC]8 – Love Is The Answer.wav

Pre-gap length 0:00:03.65

Peak level 100.0 %
Track quality 100.0 %
Test CRC A5A4320B
Copy CRC A5A4320B
Copy OK

No errors occured

End of status report

The Bad Plus - The Bad Plus (2001) {Fresh Sound New Talent}

The Bad Plus - The Bad Plus (2001) {Fresh Sound New Talent}

All thanks goes to the original releaser!

see more The Bad Plus:
The Bad Plus – The Rite Of Spring (2014) {Masterworks}
The Bad Plus & Joshua Redman – The Bad Plus Joshua Redman (2015) {Nonesuch Records 548920-2}
The Bad Plus – Inevitable Western (2014) {Okeh 88843 02406 2}
The Bad Plus – Blunt Object: Live In Tokyo (2006) {Columbia 82876811242}

Ethan Iverson Trio (The Bad Plus) – Deconstruction Zone (Standards) (1998) {Fresh Sound New Talent FSNT 047 CD}
The Bad Plus – Suspicious Activity? (2005) {Columbia-Sony BMG}
The Bad Plus – The Bad Plus Give (2004) {Columbia Bonus Track 12}

NEXT -> More The Bad Plus on the way…

The Bad Plus – The Bad Plus (2001) {Fresh Sound New Talent} Download, Warez, DDL, Free, Full Album, Torrent, Legal.

Download