The Avalanches – Since I Left You (second mix) (2001) {Modular/Sire} **[RE-UP]**

Download
The Avalanches - Since I Left You (second mix) (2001) {Modular/Sire} **[RE-UP]**

The Avalanches – Since I Left You (second mix) (2001) {Modular/Sire}
EAC Rip | FLAC with CUE and log | scans | 442 mb
MP3 CBR 320kbps | RAR | 154 mb
Genre: electronica, down tempo, cut-n-paste

Since I Left You is the 2001 CD by the Australian group The Avalanches. The entire album is a collage of sounds from outside sources, being one of the first albums to be created with 100% samples. This CD features the hits "Since I Left You", "Electricity", and "Frontier Psychiatrist". This CD rip is the second mix released, as the Australian version featured certain samples that did not make it into versions outside of Australia and New Zealand. This was released by Modular via Sire.

A bunch of guys from Australia.

Instruments and electronics.

That is taken over by the dominance and importance of the sample.

The Avalanches create a sample-based album in the tradition of Coldcut, DJ Shadow, The Herbalizer, DJ Krush, Jazzanova, Jaga Jazzist, and many others who take the essence of dusty records and turn it into a unique blend of "found sound". Upon first listening, it may sound like some weird disco cruise ship, but stay along for the ride and you will hear one of the most imaginative recordings of the last few years. The sample-based production not only acknowledges their love of discarded records and sounds, but also throws many hints at their influences. Take a deeper listen and one may discover a storyline. Hold on tight, book a flight to another world of 20,000 girls and milk.

The Avalanches - Since I Left You (second mix) (2001) {Modular/Sire} **[RE-UP]**

1. Since I Left You
2. Stay Another Season
3. Radio
4. Two Hearts In 3/4 Time
5. Avalanche Rock
6. Flight Tonight
7. Close To You
8. Diners Only
9. A Different Feeling
10. Electricity
11. Tonight May Have To Last Me All My Life
12. Pablo’s Cruise
13. Frontier Psychiatrist
14. Etoh
15. Summer Crane
16. Little Journey
17. Live at Dominoes
18. Extra Kings

The Avalanches - Since I Left You (second mix) (2001) {Modular/Sire} **[RE-UP]**
EAC Log
EAC extraction logfile from 13. January 2006, 7:57 for CD
The Avalanches / Since I Left You

Used drive : LITE-ON DVDRW SOHW-1633S Adapter: 0 ID: 0
Read mode : Secure with NO C2, accurate stream, disable cache
Read offset correction : 12
Overread into Lead-In and Lead-Out : No

Used output format : Internal WAV Routines
44.100 Hz; 16 Bit; Stereo

Other options :
Fill up missing offset samples with silence : Yes
Delete leading and trailing silent blocks : No
Installed external ASPI interface

Track 1
Filename D:FLACThe Avalanches – Since I Left You (2001) [FLAC]1 – Since I Left You.wav

Pre-gap length 0:00:02.00

Peak level 100.0 %
Track quality 100.0 %
Test CRC 90A4DB4E
Copy CRC 90A4DB4E
Copy OK

Track 2
Filename D:FLACThe Avalanches – Since I Left You (2001) [FLAC]2 – Stay Another Season.wav

Peak level 100.0 %
Track quality 100.0 %
Test CRC 281C29B5
Copy CRC 281C29B5
Copy OK

Track 3
Filename D:FLACThe Avalanches – Since I Left You (2001) [FLAC]3 – Radio.wav

Peak level 100.0 %
Track quality 100.0 %
Test CRC FA10F16D
Copy CRC FA10F16D
Copy OK

Track 4
Filename D:FLACThe Avalanches – Since I Left You (2001) [FLAC]4 – Two Hearts in 3,4 Time.wav

Peak level 100.0 %
Track quality 100.0 %
Test CRC AF9BE661
Copy CRC AF9BE661
Copy OK

Track 5
Filename D:FLACThe Avalanches – Since I Left You (2001) [FLAC]5 – Avalanche Rock.wav

Peak level 99.9 %
Track quality 100.0 %
Test CRC A62FF9AE
Copy CRC A62FF9AE
Copy OK

Track 6
Filename D:FLACThe Avalanches – Since I Left You (2001) [FLAC]6 – Flight Tonight.wav

Peak level 100.0 %
Track quality 100.0 %
Test CRC DA5C03E2
Copy CRC DA5C03E2
Copy OK

Track 7
Filename D:FLACThe Avalanches – Since I Left You (2001) [FLAC]7 – Close to You.wav

Peak level 100.0 %
Track quality 100.0 %
Test CRC 217224AD
Copy CRC 217224AD
Copy OK

Track 8
Filename D:FLACThe Avalanches – Since I Left You (2001) [FLAC]8 – Diners Only.wav

Peak level 100.0 %
Track quality 99.8 %
Test CRC C214B4B5
Copy CRC C214B4B5
Copy OK

Track 9
Filename D:FLACThe Avalanches – Since I Left You (2001) [FLAC]9 – A Different Feeling.wav

Peak level 100.0 %
Track quality 100.0 %
Test CRC B25985F5
Copy CRC B25985F5
Copy OK

Track 10
Filename D:FLACThe Avalanches – Since I Left You (2001) [FLAC]10 – Electricity.wav

Peak level 100.0 %
Track quality 100.0 %
Test CRC 08F440F8
Copy CRC 08F440F8
Copy OK

Track 11
Filename D:FLACThe Avalanches – Since I Left You (2001) [FLAC]11 – Tonight.wav

Peak level 100.0 %
Track quality 100.0 %
Test CRC A798B2AF
Copy CRC A798B2AF
Copy OK

Track 12
Filename D:FLACThe Avalanches – Since I Left You (2001) [FLAC]12 – Pablo’s Cruise.wav

Peak level 100.0 %
Track quality 100.0 %
Test CRC 6E6F2A63
Copy CRC 6E6F2A63
Copy OK

Track 13
Filename D:FLACThe Avalanches – Since I Left You (2001) [FLAC]13 – Frontier Psychiatrist.wav

Peak level 100.0 %
Track quality 100.0 %
Test CRC 92075EFC
Copy CRC 92075EFC
Copy OK

Track 14
Filename D:FLACThe Avalanches – Since I Left You (2001) [FLAC]14 – Etoh.wav

Peak level 100.0 %
Track quality 100.0 %
Test CRC DC6A0592
Copy CRC DC6A0592
Copy OK

Track 15
Filename D:FLACThe Avalanches – Since I Left You (2001) [FLAC]15 – Summer Crane.wav

Peak level 100.0 %
Track quality 100.0 %
Test CRC 6689900A
Copy CRC 6689900A
Copy OK

Track 16
Filename D:FLACThe Avalanches – Since I Left You (2001) [FLAC]16 – Little Journey.wav

Peak level 100.0 %
Track quality 100.0 %
Test CRC 6D1D037E
Copy CRC 6D1D037E
Copy OK

Track 17
Filename D:FLACThe Avalanches – Since I Left You (2001) [FLAC]17 – Live at Dominoes.wav

Peak level 100.0 %
Track quality 100.0 %
Test CRC BEE89E04
Copy CRC BEE89E04
Copy OK

Track 18
Filename D:FLACThe Avalanches – Since I Left You (2001) [FLAC]18 – Extra Kings.wav

Peak level 100.0 %
Track quality 100.0 %
Test CRC ABE4466A
Copy CRC ABE4466A
Copy OK

No errors occured

End of status report

The Avalanches - Since I Left You (second mix) (2001) {Modular/Sire} **[RE-UP]**

Check out other titles in my Avaxhome blog or my personal blog.

The Avalanches – Since I Left You (second mix) (2001) {Modular/Sire} **[RE-UP]** Download, Warez, DDL, Free, Full Album, Torrent, Legal.

Download