The Apples Present – Kings (2010)

Download
The Apples Present - Kings (2010)

The Apples Present – Kings (2010)
EAC Rip | FLAC (Tracks) +CUE, LOG | 268 MB | Covers Included
Genre: Funk / Jazz / Soul | Label: Audio Montage Entertainment | Catalog Number: AMCD011

THE APPLES present: KINGS. The brand new release from the nine piece instrumental Juggernaut. In a musical first for the band, they wrote, arranged and recorded music with specific collaborators in mind. They held sessions with two of their heroes; a congregation with two musical and spiritual father figures from opposite ends of The Apples rich spectrum: Fred Wesley – Pioneer of funk trombone in particular and funk horn arranging in general with James Brown, The JBs, Parliament-Funkadelic and The Horny Horns. SHLOMO BAR – Vocalist, Percussionist, Godfather of Israeli world music. Figurehead of the highly influential ethno-fusion ensemble HaBrera HaTeevit. The exciting process of these recordings exposed the band’s many roots and influences; elements of The JB’s funky foundations, African, Cut & Paste, Soul, Middle Eastern, and Dub are all clearly displayed on KINGS, strained through the band’s unique Decks-Horns-Soundboard Effects-Double Bass-Drums lineup. This release signifies the next step in The Apples ever thickening groove stew, and the boys are intent on pushing it further and this summer will once again take to festival and club stages for another string of their relentless live sets filled with runaway grooves, countless twists and turns, dizzying transitions, spontaneous arrangements, the occasional reworking of early 90’s alt-rock fist shakers, and the basic jump-up-and-down crazyness for which The Apples are known stages, dancefloors, soundsystems, playlists, films, televisions, cars and ears worldwide. As the conspiracy continues, watch this space, and bring a change of clothes.

EAC Log
Exact Audio Copy V0.99 prebeta 5 from 4. May 2009

EAC extraction logfile from 9. February 2011, 19:04

The Apples / Kings

Used drive : HL-DT-STDVD-RAM GH22NP20 Adapter: 0 ID: 0

Read mode : Secure
Utilize accurate stream : Yes
Defeat audio cache : Yes
Make use of C2 pointers : No

Read offset correction : 102
Overread into Lead-In and Lead-Out : No
Fill up missing offset samples with silence : Yes
Delete leading and trailing silent blocks : No
Null samples used in CRC calculations : Yes
Used interface : Native Win32 interface for Win NT & 2000
Gap handling : Appended to previous track

Used output format : User Defined Encoder
Selected bitrate : 320 kBit/s
Quality : High
Add ID3 tag : No
Command line compressor : D:toolsanalyzeapeflac.exe
Additional command line options : -8 -V -T "ARTIST=%a" -T "TITLE=%t" -T "ALBUM=%g" -T "DATE=%y" -T "TRACKNUMBER=%n" -T "GENRE=%m" -T "COMMENT=EAC FLAC -8" %s

TOC of the extracted CD

Track | Start | Length | Start sector | End sector
––––––––––––––––––––––––––––-
1 | 0:00.00 | 4:39.17 | 0 | 20941
2 | 4:39.17 | 4:09.47 | 20942 | 39663
3 | 8:48.64 | 4:05.08 | 39664 | 58046
4 | 12:53.72 | 3:50.59 | 58047 | 75355
5 | 16:44.56 | 3:44.00 | 75356 | 92155
6 | 20:28.56 | 5:03.45 | 92156 | 114925
7 | 25:32.26 | 6:20.30 | 114926 | 143455
8 | 31:52.56 | 7:02.10 | 143456 | 175115

Track 1

Filename D:musicMusicgate’s ripsThe Apples – Kings – 20101 – Howlin’ With Fred.wav

Pre-gap length 0:00:02.00

Peak level 99.9 %
Track quality 100.0 %
Test CRC F13E47F6
Copy CRC F13E47F6
Track not present in AccurateRip database
Copy OK

Track 2

Filename D:musicMusicgate’s ripsThe Apples – Kings – 20102 – In The Air.wav

Peak level 99.9 %
Track quality 100.0 %
Test CRC 43C2F2C7
Copy CRC 43C2F2C7
Track not present in AccurateRip database
Copy OK

Track 3

Filename D:musicMusicgate’s ripsThe Apples – Kings – 20103 – ALl Right All Right.wav

Peak level 98.9 %
Track quality 100.0 %
Test CRC 82B7D64A
Copy CRC 82B7D64A
Track not present in AccurateRip database
Copy OK

Track 4

Filename D:musicMusicgate’s ripsThe Apples – Kings – 20104 – Kings.wav

Peak level 99.8 %
Track quality 99.9 %
Test CRC 32F21B4A
Copy CRC 32F21B4A
Track not present in AccurateRip database
Copy OK

Track 5

Filename D:musicMusicgate’s ripsThe Apples – Kings – 20105 – Batash (Alwoojdi).wav

Peak level 97.7 %
Track quality 100.0 %
Test CRC D62964E6
Copy CRC D62964E6
Track not present in AccurateRip database
Copy OK

Track 6

Filename D:musicMusicgate’s ripsThe Apples – Kings – 20106 – Ani, Ata veHoo.wav

Peak level 97.6 %
Track quality 100.0 %
Test CRC 1CFC319F
Copy CRC 1CFC319F
Track not present in AccurateRip database
Copy OK

Track 7

Filename D:musicMusicgate’s ripsThe Apples – Kings – 20107 – Walking To The Palace.wav

Peak level 99.9 %
Track quality 100.0 %
Test CRC A6A1F027
Copy CRC A6A1F027
Track not present in AccurateRip database
Copy OK

Track 8

Filename D:musicMusicgate’s ripsThe Apples – Kings – 20108 – Banana Jam.wav

Peak level 97.6 %
Track quality 100.0 %
Test CRC BF2E99B7
Copy CRC BF2E99B7
Track not present in AccurateRip database
Copy OK

None of the tracks are present in the AccurateRip database

No errors occurred

End of status report

Tracklist:
1. Howlin’ with Fred [04:39]
2. In the Air [04:09]
3. All Right All Right [04:05]
4. Kings [03:50]
5. Batash (Alwoojdi) [03:44]
6. Ani, Ata veHoo [05:03]
7. Walking to the Palace [06:20]
8. Banana Jam [07:02]

The Apples Present – Kings (2010) Download, Warez, DDL, Free, Full Album, Torrent, Legal.

Download