Tete Montoliu & Jordi Sabates – Vampyria (1974) {Nuevos Medios}

Download
Tete Montoliu & Jordi Sabates - Vampyria (1974) {Nuevos Medios}

Tete Montoliu & Jordi Sabates – Vampyria (1974) {Nuevos Medios}
EAC 1.0b3 | FLAC tracks level 8 | Cue+Log+M3U | Full Scans 600dpi | 214MB + 5% Recovery
MP3 CBR 320 Kbps | 187MB + 5% Recovery
Genre: Jazz, Fusion
Tete Montoliu & Jordi Sabates - Vampyria (1974) {Nuevos Medios}

Mestre i deixeble s’uneixen per signar una peça única en la discografia jazzística catalana. Tete Montoliu al piano elèctric i Jordi Sabatés a l’acústic culminen un treball intens i controvertit alhora. El disc Vampyria, enregistrat el juliol de 1974, va ser escollit per la revista Jaç núm. 25 ( "Els 100 millors discos del jazz català" ) com el treball que encapçalava una llista valorativa de 100 referències del jazz dels Països Catalans. Vampyria és el resultat de combinar tradició i transgressió amb uns signes d’identitat pròpia absolutament irrefutables.

Track List
01. Cançó De Bressol 1 1:42
02. Ligeia 6:45
03. Stonehenge 6:10
04. Mirando Al Caballo Claro 2:32
05. Blues Para El Pianista Desconocido 3:10
06. Cançó De Bressol 2 1:44
07. Cançó De Bressol 3 1:12
08. Moyenne Girl 5:44
09. Marcha Fúnebre 2:14
10. Tristesses De La Lune 5:14
11. L’Invitation Au Voyage 6:32
12. Cançó De Bressol 4 1:25

musicians
Tete Montoliu – electric piano
Jordi Sabatés – piano

EAC Logfile
Exact Audio Copy V1.0 beta 3 from 29. August 2011

EAC extraction logfile from 28. January 2017, 19:05

Tete Montoliu & Jordi Sabates / Vampyria

Used drive : ASUS DRW-24F1ST a Adapter: 0 ID: 0

Read mode : Secure
Utilize accurate stream : Yes
Defeat audio cache : Yes
Make use of C2 pointers : No

Read offset correction : 6
Overread into Lead-In and Lead-Out : No
Fill up missing offset samples with silence : Yes
Delete leading and trailing silent blocks : No
Null samples used in CRC calculations : Yes
Used interface : Native Win32 interface for Win NT & 2000
Gap handling : Appended to previous track

Used output format : User Defined Encoder
Selected bitrate : 128 kBit/s
Quality : High
Add ID3 tag : No
Command line compressor : C:Program Files (x86)Exact Audio CopyFLACFLAC.EXE
Additional command line options : -8 -V -T "ARTIST=%artist%" -T "TITLE=%title%" -T "ALBUM=%albumtitle%" -T "DATE=%year%" -T "TRACKNUMBER=%tracknr%" -T "TOTALTRACKS=%numtracks%" -T "GENRE=%genre%" -T "ALBUMARTIST=%albumartist%" -T "ALBUM ARTIST=%albumartist%" -T "COMMENT=EAC Secure Mode, Test & Copy, AccurateRip, FLAC -8" %source%

TOC of the extracted CD

Track | Start | Length | Start sector | End sector
––––––––––––––––––––––––––––-
1 | 0:00.00 | 1:42.44 | 0 | 7693
2 | 1:42.44 | 6:45.21 | 7694 | 38089
3 | 8:27.65 | 6:10.14 | 38090 | 65853
4 | 14:38.04 | 2:32.60 | 65854 | 77313
5 | 17:10.64 | 3:10.40 | 77314 | 91603
6 | 20:21.29 | 1:44.58 | 91604 | 99461
7 | 22:06.12 | 1:12.53 | 99462 | 104914
8 | 23:18.65 | 5:44.44 | 104915 | 130758
9 | 29:03.34 | 2:14.54 | 130759 | 140862
10 | 31:18.13 | 5:14.23 | 140863 | 164435
11 | 36:32.36 | 6:32.63 | 164436 | 193898
12 | 43:05.24 | 1:25.53 | 193899 | 200326

Track 1

Filename K:EAC1 – Canco De Bressol 1.wav

Pre-gap length 0:00:02.00

Peak level 57.4 %
Extraction speed 2.8 X
Track quality 99.8 %
Test CRC 55C41B66
Copy CRC 55C41B66
Accurately ripped (confidence 1) [0B549158] (AR v1)
Copy OK

Track 2

Filename K:EAC2 – Ligeia.wav

Pre-gap length 0:00:00.71

Peak level 81.8 %
Extraction speed 4.9 X
Track quality 100.0 %
Test CRC 220D49B6
Copy CRC 220D49B6
Accurately ripped (confidence 1) [68C155DD] (AR v1)
Copy OK

Track 3

Filename K:EAC3 – Stonehenge.wav

Pre-gap length 0:00:01.03

Peak level 81.8 %
Extraction speed 5.1 X
Track quality 99.9 %
Test CRC 2F9640CB
Copy CRC 2F9640CB
Accurately ripped (confidence 1) [2E1BBF5C] (AR v1)
Copy OK

Track 4

Filename K:EAC4 – Mirando Al Caballo Claro.wav

Pre-gap length 0:00:00.62

Peak level 67.5 %
Extraction speed 5.3 X
Track quality 100.0 %
Test CRC D1FEEBFF
Copy CRC D1FEEBFF
Accurately ripped (confidence 1) [2C44CAE4] (AR v1)
Copy OK

Track 5

Filename K:EAC5 – Blues Para El Pianista Desconocido.wav

Pre-gap length 0:00:01.07

Peak level 81.9 %
Extraction speed 4.9 X
Track quality 99.9 %
Test CRC 26BEA207
Copy CRC 26BEA207
Accurately ripped (confidence 1) [AC805C1B] (AR v1)
Copy OK

Track 6

Filename K:EAC6 – Canco De Bressol 2.wav

Pre-gap length 0:00:01.31

Peak level 53.1 %
Extraction speed 5.1 X
Track quality 100.0 %
Test CRC 75AEC594
Copy CRC 75AEC594
Accurately ripped (confidence 1) [A7F3A396] (AR v1)
Copy OK

Track 7

Filename K:EAC7 – Canco De Bressol 3.wav

Pre-gap length 0:00:01.18

Peak level 82.9 %
Extraction speed 3.5 X
Track quality 99.8 %
Test CRC F20C87AD
Copy CRC F20C87AD
Accurately ripped (confidence 1) [965236EB] (AR v1)
Copy OK

Track 8

Filename K:EAC8 – Moyenne Girl.wav

Pre-gap length 0:00:00.63

Peak level 96.2 %
Extraction speed 6.2 X
Track quality 99.9 %
Test CRC 3BC4D968
Copy CRC 3BC4D968
Accurately ripped (confidence 1) [51417774] (AR v1)
Copy OK

Track 9

Filename K:EAC9 – Marcha Funebre.wav

Pre-gap length 0:00:01.14

Peak level 80.1 %
Extraction speed 6.1 X
Track quality 100.0 %
Test CRC BD9E2AD4
Copy CRC BD9E2AD4
Accurately ripped (confidence 1) [F51626CF] (AR v1)
Copy OK

Track 10

Filename K:EAC10 – Tristesses De La Lune.wav

Pre-gap length 0:00:00.66

Peak level 96.4 %
Extraction speed 7.4 X
Track quality 100.0 %
Test CRC 31F5C80E
Copy CRC 31F5C80E
Accurately ripped (confidence 1) [C2D9AF5D] (AR v1)
Copy OK

Track 11

Filename K:EAC11 – L’invitation Au Voyage.wav

Pre-gap length 0:00:01.16

Peak level 96.3 %
Extraction speed 8.0 X
Track quality 100.0 %
Test CRC F140AB7D
Copy CRC F140AB7D
Accurately ripped (confidence 1) [B54F32AB] (AR v1)
Copy OK

Track 12

Filename K:EAC12 – Canco De Bressol 4.wav

Pre-gap length 0:00:00.66

Peak level 73.6 %
Extraction speed 5.5 X
Track quality 100.0 %
Test CRC 31803863
Copy CRC 31803863
Accurately ripped (confidence 1) [9E2EAADB] (AR v1)
Copy OK

All tracks accurately ripped

No errors occurred

End of status report

==== Log checksum 0CA353F331B32160CE9CF3374C556687243854314DD334ABCEFDBE336DEFBD37 ====

Dynamic Range Analysis
––––––––––––––––––––––––––––––––––––––––
Analyzed: Tete Montoliu & Jordi Sabates / Vampyria
––––––––––––––––––––––––––––––––––––––––

DR Peak RMS Duration Track
––––––––––––––––––––––––––––––––––––––––
DR12 -4.81 dB -24.31 dB 1:43 01-Canco De Bressol 1
DR9 -1.74 dB -13.89 dB 6:45 02-Ligeia
DR9 -1.74 dB -14.18 dB 6:10 03-Stonehenge
DR11 -3.41 dB -18.78 dB 2:33 04-Mirando Al Caballo Claro
DR10 -1.73 dB -14.24 dB 3:11 05-Blues Para El Pianista Desconocido
DR11 -5.48 dB -22.10 dB 1:45 06-Canco De Bressol 2
DR10 -1.62 dB -17.11 dB 1:13 07-Canco De Bressol 3
DR11 -0.34 dB -13.90 dB 5:45 08-Moyenne Girl
DR13 -1.92 dB -19.96 dB 2:15 09-Marcha Funebre
DR9 -0.31 dB -11.48 dB 5:14 10-Tristesses De La Lune
DR10 -0.32 dB -12.71 dB 6:33 11-L’invitation Au Voyage
DR11 -2.66 dB -18.64 dB 1:26 12-Canco De Bressol 4
––––––––––––––––––––––––––––––––––––––––

Number of tracks: 12
Official DR value: DR11

Samplerate: 44100 Hz
Channels: 2
Bits per sample: 16
Bitrate: 239 kbps
Codec: FLAC
================================================================================

Tete Montoliu & Jordi Sabates - Vampyria (1974) {Nuevos Medios}
Tete Montoliu & Jordi Sabates - Vampyria (1974) {Nuevos Medios}
Tete Montoliu & Jordi Sabates - Vampyria (1974) {Nuevos Medios}
Thanks to the original ripper

Tete Montoliu & Jordi Sabates – Vampyria (1974) {Nuevos Medios} Download, Warez, DDL, Free, Full Album, Torrent, Legal.

Download