Terry Gibbs – Plays Jewish Melodies In Jazztime (1963) {2002 Verve Music Group} **[RE-UP]**

Download
Terry Gibbs - Plays Jewish Melodies In Jazztime (1963) {2002 Verve Music Group} **[RE-UP]**

Terry Gibbs – Plays Jewish Melodies In Jazztime (1963) {2002 Verve Music Group}
EAC Rip | FLAC with CUE and log | scans | 233 mb
MP3 CBR 320kbps | RAR | 90 mb
Genre: jazz

Terry Gibbs Plays Jewish Melodies In Jazztime is a 1963 album by vibraphonist Terry Gibbs. The album has a theme which goes through different world musics, all done with a constant string of jazz. The album features Sol Sage on drums & marimba; Herman Wright on bass; Ray Musiker on clarinet; Sam Kutcher on trombone; Alan Logan on piano; and Bobby Pike on drums, but it is notable for featuring Alice McLeod on piano, who would later marry saxophonist John Coltrane. Originally released on Mercury, this CD was released in 2002 by Verve Music Group.

Terry Gibbs - Plays Jewish Melodies In Jazztime (1963) {2002 Verve Music Group} **[RE-UP]**

1. Bei Mir Bist Du Schön
2. Papirossen (Cigarettes)
3. Kazochok (Russian Dance)
4. Vuloch (A Folk Dance)
5. My Yiddishe Momme
6. And the Angels Sing
7. S & S
8. Shaine Une Zees (Pretty & Sweet)
9. Nyah Shere (New Dance)

Terry Gibbs-vibraphone, marimba
Sam Kutcher-trombone
Ray Musiker-clarinet
Alan Logan-piano
Alice McLeod-piano
Herman Wright-bass
Sol Gage-drums, marimba
Bobby Pike-drums

Produced by Quincy Jones
Recorded at A & R Studios, New York City on 11 & 12 January, 1963

Reissue produced by Bryan Koniartz
Remastered by Kevin Reeves
Production assistance by Austin Brentley & Mark Smith

EAC Log
EAC extraction logfile from 11. September 2006, 8:06 for CD
Terry Gibbs / Terry Gibbs Plays Jewish Melodies in Jazztime

Used drive : LITE-ON DVDRW SOHW-1633S Adapter: 0 ID: 0
Read mode : Secure with NO C2, accurate stream, disable cache
Read offset correction : 12
Overread into Lead-In and Lead-Out : No

Used output format : Internal WAV Routines
44.100 Hz; 16 Bit; Stereo

Other options :
Fill up missing offset samples with silence : Yes
Delete leading and trailing silent blocks : No
Installed external ASPI interface

Track 1
Filename D:FLACTerry Gibbs – Plays Jewish Melodies In Jazztime (1963) [FLAC] {2002 Verve Music Group}1 – Bei Mir Bist Du Schon.wav

Pre-gap length 0:00:02.00

Peak level 86.9 %
Track quality 100.0 %
Test CRC 1AA48911
Copy CRC 1AA48911
Copy OK

Track 2
Filename D:FLACTerry Gibbs – Plays Jewish Melodies In Jazztime (1963) [FLAC] {2002 Verve Music Group}2 – Papirossen (Cigarettes).wav

Pre-gap length 0:00:03.73

Peak level 97.8 %
Track quality 100.0 %
Test CRC 15F33365
Copy CRC 15F33365
Copy OK

Track 3
Filename D:FLACTerry Gibbs – Plays Jewish Melodies In Jazztime (1963) [FLAC] {2002 Verve Music Group}3 – Kazochok (Russian Dance).wav

Pre-gap length 0:00:03.86

Peak level 89.3 %
Track quality 100.0 %
Test CRC E4CC57FE
Copy CRC E4CC57FE
Copy OK

Track 4
Filename D:FLACTerry Gibbs – Plays Jewish Melodies In Jazztime (1963) [FLAC] {2002 Verve Music Group}4 – Vuloch (A Folk Dance).wav

Pre-gap length 0:00:04.62

Peak level 84.3 %
Track quality 100.0 %
Test CRC DB071FC3
Copy CRC DB071FC3
Copy OK

Track 5
Filename D:FLACTerry Gibbs – Plays Jewish Melodies In Jazztime (1963) [FLAC] {2002 Verve Music Group}5 – My Yiddishe Momme.wav

Pre-gap length 0:00:03.96

Peak level 69.4 %
Track quality 100.0 %
Test CRC D25E95AD
Copy CRC D25E95AD
Copy OK

Track 6
Filename D:FLACTerry Gibbs – Plays Jewish Melodies In Jazztime (1963) [FLAC] {2002 Verve Music Group}6 – And the Angels Sing.wav

Pre-gap length 0:00:04.54

Peak level 74.3 %
Track quality 100.0 %
Test CRC 7B1F2542
Copy CRC 7B1F2542
Copy OK

Track 7
Filename D:FLACTerry Gibbs – Plays Jewish Melodies In Jazztime (1963) [FLAC] {2002 Verve Music Group}7 – S & S.wav

Pre-gap length 0:00:05.30

Peak level 84.7 %
Track quality 99.9 %
Test CRC BDE32976
Copy CRC BDE32976
Copy OK

Track 8
Filename D:FLACTerry Gibbs – Plays Jewish Melodies In Jazztime (1963) [FLAC] {2002 Verve Music Group}8 – Shaine Une Zees (Pretty & Sweet).wav

Pre-gap length 0:00:03.77

Peak level 89.7 %
Track quality 100.0 %
Test CRC 4FCDE211
Copy CRC 4FCDE211
Copy OK

Track 9
Filename D:FLACTerry Gibbs – Plays Jewish Melodies In Jazztime (1963) [FLAC] {2002 Verve Music Group}9 – Nyah Shere (New Dance).wav

Pre-gap length 0:00:03.97

Peak level 85.8 %
Track quality 99.9 %
Test CRC B2FF2127
Copy CRC B2FF2127
Copy OK

No errors occured

End of status report

Terry Gibbs - Plays Jewish Melodies In Jazztime (1963) {2002 Verve Music Group} **[RE-UP]**

Check out other titles in my Avaxhome blog or my personal blog.

Terry Gibbs – Plays Jewish Melodies In Jazztime (1963) {2002 Verve Music Group} **[RE-UP]** Download, Warez, DDL, Free, Full Album, Torrent, Legal.

Download