Ten Feet – Everyday (2008) | ViralVideoPk

Daily Dose of Free Downloads

Ten Feet – Everyday (2008)

Download

Ten Feet - Everyday (2008)

Ten Feet – Everyday (2008)
EAC Rip | FLAC with CUE and log | scans | 397 mb
MP3 CBR 320kbps | RAR | 132 mb
Genre: Jawaiian, Hawaiian pop

Everyday is a 2008 album by Hawaiian group Ten Feet. Their style of music is Jawaiian, a mixture of Hawaiian and Jamaican reggae, which has also become known in some circles as "island style". It includes new renditions of The Beatles’ "Something" and Leo Sayer’s fantastic "More Than I Can Say".

Ten Feet - Everyday (2008)

01. Good
02. True
03. I’m Yours
04. Back Home
05. Something
06. Best Friend
07. Book of Rules
08. Little Things
09. Everyday
10. Heartaches & Heartbreaks
11. Sand Island Way
12. Sweet Sunlight
13. 247365
14. Tonight
15. More Than I Can Say

Produced and engineered by Imua Garza
Mixed and mastered by Dave Tucciarone

EAC Log
Exact Audio Copy V1.1 from 23. June 2015

EAC extraction logfile from 14. December 2016, 10:51

Ten Feet / Everyday

Used drive : TEAC DVD-ROM DV-28SW Adapter: 1 ID: 0

Read mode : Secure
Utilize accurate stream : Yes
Defeat audio cache : Yes
Make use of C2 pointers : No

Read offset correction : 6
Overread into Lead-In and Lead-Out : No
Fill up missing offset samples with silence : Yes
Delete leading and trailing silent blocks : No
Null samples used in CRC calculations : Yes
Used interface : Native Win32 interface for Win NT & 2000
Gap handling : Appended to previous track

Used output format : Internal WAV Routines
Sample format : 44.100 Hz; 16 Bit; Stereo

TOC of the extracted CD

Track | Start | Length | Start sector | End sector
––––––––––––––––––––––––––––-
1 | 0:00.00 | 3:38.73 | 0 | 16422
2 | 3:38.73 | 3:43.24 | 16423 | 33171
3 | 7:22.22 | 4:02.35 | 33172 | 51356
4 | 11:24.57 | 3:33.03 | 51357 | 67334
5 | 14:57.60 | 3:05.57 | 67335 | 81266
6 | 18:03.42 | 3:18.19 | 81267 | 96135
7 | 21:21.61 | 4:17.10 | 96136 | 115420
8 | 25:38.71 | 3:45.51 | 115421 | 132346
9 | 29:24.47 | 4:25.71 | 132347 | 152292
10 | 33:50.43 | 4:01.16 | 152293 | 170383
11 | 37:51.59 | 4:17.51 | 170384 | 189709
12 | 42:09.35 | 3:58.44 | 189710 | 207603
13 | 46:08.04 | 4:24.31 | 207604 | 227434
14 | 50:32.35 | 4:06.35 | 227435 | 245919
15 | 54:38.70 | 3:25.13 | 245920 | 261307

Track 1

Filename C:My DocumentsMy FLACTen Feet – Everyday (2008) [FLAC]1 – Good.wav

Pre-gap length 0:00:02.00

Peak level 98.9 %
Extraction speed 2.5 X
Track quality 100.0 %
Test CRC B351D859
Copy CRC B351D859
Accurately ripped (confidence 2) [106C1EFB] (AR v1)
Copy OK

Track 2

Filename C:My DocumentsMy FLACTen Feet – Everyday (2008) [FLAC]2 – True.wav

Pre-gap length 0:00:03.00

Peak level 98.9 %
Extraction speed 3.0 X
Track quality 100.0 %
Test CRC B6C18F71
Copy CRC B6C18F71
Accurately ripped (confidence 2) [0EB741F5] (AR v1)
Copy OK

Track 3

Filename C:My DocumentsMy FLACTen Feet – Everyday (2008) [FLAC]3 – I’m Yours.wav

Pre-gap length 0:00:03.00

Peak level 98.9 %
Extraction speed 3.2 X
Track quality 100.0 %
Test CRC 2407091B
Copy CRC 2407091B
Accurately ripped (confidence 2) [3986E4A2] (AR v1)
Copy OK

Track 4

Filename C:My DocumentsMy FLACTen Feet – Everyday (2008) [FLAC]4 – Back Home.wav

Pre-gap length 0:00:04.00

Peak level 98.9 %
Extraction speed 2.9 X
Track quality 100.0 %
Test CRC AB966BC9
Copy CRC AB966BC9
Accurately ripped (confidence 2) [7BC65642] (AR v1)
Copy OK

Track 5

Filename C:My DocumentsMy FLACTen Feet – Everyday (2008) [FLAC]5 – Something.wav

Pre-gap length 0:00:03.00

Peak level 98.9 %
Extraction speed 3.3 X
Track quality 100.0 %
Test CRC 191B952D
Copy CRC 191B952D
Accurately ripped (confidence 2) [CFA6DBF1] (AR v1)
Copy OK

Track 6

Filename C:My DocumentsMy FLACTen Feet – Everyday (2008) [FLAC]6 – Best Friend.wav

Pre-gap length 0:00:03.00

Peak level 98.9 %
Extraction speed 2.9 X
Track quality 100.0 %
Test CRC 256F0504
Copy CRC 256F0504
Accurately ripped (confidence 2) [CC3CEC63] (AR v1)
Copy OK

Track 7

Filename C:My DocumentsMy FLACTen Feet – Everyday (2008) [FLAC]7 – Book of Rules.wav

Pre-gap length 0:00:03.00

Peak level 98.9 %
Extraction speed 3.3 X
Track quality 100.0 %
Test CRC C565F870
Copy CRC C565F870
Accurately ripped (confidence 2) [40F15A7E] (AR v1)
Copy OK

Track 8

Filename C:My DocumentsMy FLACTen Feet – Everyday (2008) [FLAC]8 – Little Things.wav

Pre-gap length 0:00:03.00

Peak level 98.9 %
Extraction speed 3.9 X
Track quality 100.0 %
Test CRC 1FD5EFF9
Copy CRC 1FD5EFF9
Accurately ripped (confidence 2) [9A2A9C1C] (AR v1)
Copy OK

Track 9

Filename C:My DocumentsMy FLACTen Feet – Everyday (2008) [FLAC]9 – Everyday.wav

Pre-gap length 0:00:03.00

Peak level 98.9 %
Extraction speed 2.2 X
Track quality 99.9 %
Test CRC CA7F839F
Copy CRC CA7F839F
Accurately ripped (confidence 2) [36FF409E] (AR v1)
Copy OK

Track 10

Filename C:My DocumentsMy FLACTen Feet – Everyday (2008) [FLAC]10 – Heartaches & Heartbreaks.wav

Pre-gap length 0:00:03.00

Peak level 98.9 %
Extraction speed 2.3 X
Track quality 99.9 %
Test CRC 5D44186B
Copy CRC 5D44186B
Accurately ripped (confidence 2) [1A2B3333] (AR v1)
Copy OK

Track 11

Filename C:My DocumentsMy FLACTen Feet – Everyday (2008) [FLAC]11 – Sand Island Way.wav

Pre-gap length 0:00:03.00

Peak level 98.9 %
Extraction speed 3.2 X
Track quality 100.0 %
Test CRC B787756A
Copy CRC B787756A
Accurately ripped (confidence 3) [CCFD152C] (AR v1)
Copy OK

Track 12

Filename C:My DocumentsMy FLACTen Feet – Everyday (2008) [FLAC]12 – Sweet Sunlight.wav

Pre-gap length 0:00:03.00

Peak level 98.9 %
Extraction speed 4.1 X
Track quality 100.0 %
Test CRC 52FDF213
Copy CRC 52FDF213
Accurately ripped (confidence 2) [6B17186E] (AR v1)
Copy OK

Track 13

Filename C:My DocumentsMy FLACTen Feet – Everyday (2008) [FLAC]13 – 247365.wav

Pre-gap length 0:00:03.00

Peak level 98.9 %
Extraction speed 5.1 X
Track quality 100.0 %
Test CRC C4B72426
Copy CRC C4B72426
Accurately ripped (confidence 2) [1F930241] (AR v1)
Copy OK

Track 14

Filename C:My DocumentsMy FLACTen Feet – Everyday (2008) [FLAC]14 – Tonight.wav

Pre-gap length 0:00:03.00

Peak level 98.9 %
Extraction speed 4.1 X
Track quality 100.0 %
Test CRC 3A3D8E6C
Copy CRC 3A3D8E6C
Accurately ripped (confidence 2) [8B7E8F81] (AR v1)
Copy OK

Track 15

Filename C:My DocumentsMy FLACTen Feet – Everyday (2008) [FLAC]15 – More Than I Can Say.wav

Pre-gap length 0:00:03.00

Peak level 98.9 %
Extraction speed 4.4 X
Track quality 99.9 %
Test CRC DD8ABD67
Copy CRC DD8ABD67
Accurately ripped (confidence 2) [40A0C120] (AR v1)
Copy OK

All tracks accurately ripped

No errors occurred

End of status report

–– CUETools DB Plugin V2.1.6

[CTDB TOCID: rln2MJ_EQB.8ul.Jhviyh8lRozY-] found
Submit result: rln2MJ_EQB.8ul.Jhviyh8lRozY- has been confirmed
Track | CTDB Status
1 | (3/3) Accurately ripped
2 | (3/3) Accurately ripped
3 | (3/3) Accurately ripped
4 | (3/3) Accurately ripped
5 | (3/3) Accurately ripped
6 | (3/3) Accurately ripped
7 | (3/3) Accurately ripped
8 | (3/3) Accurately ripped
9 | (3/3) Accurately ripped
10 | (3/3) Accurately ripped
11 | (3/3) Accurately ripped
12 | (3/3) Accurately ripped
13 | (3/3) Accurately ripped
14 | (3/3) Accurately ripped
15 | (3/3) Accurately ripped

==== Log checksum 4921988B0A635BAD8E3645AFEB91E703D327A730F043CAB27F80DC4F00DEDBBA ====

Ten Feet - Everyday (2008)

Ten Feet – Everyday (2008) Download, Warez, DDL, Free, Full Album, Torrent, Legal.

Download


  • Recent Posts

  • Recent Tags