Teemu Viinikainen – Tales Of Robert Dickson (2005)

Download
Teemu Viinikainen - Tales Of Robert Dickson (2005)

Teemu Viinikainen – Tales Of Robert Dickson (2005)
EAC Rip | FLAC (tracks+.cue, log) ~ 235.98 Mb | 43:09 | Cover
Post-Bop, Free Jazz | Country: Finland | Label: KSJazz (11759-3304-2)

As gripping in his expression as he is fluent in his phrasing, Teemu Viinikainen is the epitome of the multi-faceted modern-day jazz guitarist. His rise to the elite of Finland’s finest guitar players seems to have been quick, even though he has studied his instrument at various institutes ever since childhood. At the moment he also teaches guitar playing at his alma mater, the Sibelius Academy Jazz Department.

Viinikainen has appeared on the stage with trumpeters Randy Brecker and Tim Hagans, saxman Dave Liebman, pianist Jim Beard and fellow guitarist Wayne Krantz. He collaborates frequently with local bandleaders like saxophonists Eero Koivistoinen and Joonatan Rautio and drummer/pianist Jukkis Uotila. He’s also co-leader in organ trio called The Bronson other members being Mikko Heleva on organ and Teppo Makynen on drums

Apart from being a member of the Blue Note Finland -recording team the U-Street All Stars, the guitarist’s discography includes such recent Finnish jazz landmarks as the Jazz-Emma -winning Kaira by drummer AndrĂ© Sumelius’s band Lift (2002), the critically lauded New Moods – New Sounds by saxophonist Antti Sarpila and vibraphone player Severi Pyysalo (2001), and the poetic trio album Kuunnelmia (2004) executed with vibraphonist Severi Pyysalo and saxophonist Jukka Perko.

Teemu’s exciting new release is called Tales of Robert Dickson and it features Tim Hagans on trumpet, Timo Hirvonen on bass and Jussi Lehtonen on drums. This recording was released on KSJAZZ label and it is his first as a leader.

2005 Petri Silas, Fimic

Teemu Viinikainen – guitar
Timo Hirvonen – bass
Jussi Lehtonen – drums
Tim Hagans – trumpet

Track List:
01. Sneaking, Part I (05:07)
02. Duo Improvisation I (01:04)
03. Two Grooves (07:47)
04. Space Dozen (07:25)
05. Duo Improvisation II (02:32)
06. Second Thought (03:38)
07. Sneaking, Part II (05:16)
08. The Blues (04:36)
09. Sneaking, Part III (04:09)
10. Kaituri (01:36)

EAC log
Exact Audio Copy V1.0 beta 2 from 29. April 2011

EAC extraction logfile from 16. December 2013, 8:41

Teemu Viinikainen / Tales of Robert Dickson

Used drive : TSSTcorpCDDVDW SH-S223L Adapter: 1 ID: 1

Read mode : Secure
Utilize accurate stream : Yes
Defeat audio cache : Yes
Make use of C2 pointers : No

Read offset correction : 6
Overread into Lead-In and Lead-Out : No
Fill up missing offset samples with silence : Yes
Delete leading and trailing silent blocks : No
Null samples used in CRC calculations : Yes
Used interface : Native Win32 interface for Win NT & 2000
Gap handling : Appended to previous track

Used output format : User Defined Encoder
Selected bitrate : 896 kBit/s
Quality : High
Add ID3 tag : No
Command line compressor : C:Program Files (x86)Exact Audio CopyFlacflac.exe
Additional command line options : -8 -V -T "ARTIST=%artist%" -T "TITLE=%title%" -T "ALBUM=%albumtitle%" -T "DATE=%year%" -T "TRACKNUMBER=%tracknr%" -T "GENRE=%genre%" -T "PERFORMER=%albuminterpret%" -T "COMPOSER=%composer%" %haslyrics%–tag-from-file=LYRIC

TOC of the extracted CD

Track | Start | Length | Start sector | End sector
––––––––––––––––––––––––––––-
1 | 0:00.00 | 5:07.34 | 0 | 23058
2 | 5:07.34 | 1:04.49 | 23059 | 27907
3 | 6:12.08 | 7:47.37 | 27908 | 62969
4 | 13:59.45 | 7:25.11 | 62970 | 96355
5 | 21:24.56 | 2:31.71 | 96356 | 107751
6 | 23:56.52 | 3:38.67 | 107752 | 124168
7 | 27:35.44 | 5:16.06 | 124169 | 147874
8 | 32:51.50 | 4:35.70 | 147875 | 168569
9 | 37:27.45 | 4:09.31 | 168570 | 187275
10 | 41:37.01 | 1:36.06 | 187276 | 194481

Track 1

Filename M:MusicWhat 8Teemu Viinikainen – Tales of Robert Dickson (2004) [FLAC]1 – Sneaking Part I.wav

Pre-gap length 0:00:02.00

Peak level 100.0 %
Extraction speed 4.7 X
Track quality 100.0 %
Test CRC 131B3B91
Copy CRC 131B3B91
Accurately ripped (confidence 1) [9AC5917E] (AR v1)
Copy OK

Track 2

Filename M:MusicWhat 8Teemu Viinikainen – Tales of Robert Dickson (2004) [FLAC]2 – Duo Improvisation I.wav

Pre-gap length 0:00:03.21

Peak level 100.0 %
Extraction speed 3.6 X
Track quality 100.0 %
Test CRC 52055316
Copy CRC 52055316
Accurately ripped (confidence 1) [CF3CE25B] (AR v1)
Copy OK

Track 3

Filename M:MusicWhat 8Teemu Viinikainen – Tales of Robert Dickson (2004) [FLAC]3 – Two Grooves.wav

Pre-gap length 0:00:02.34

Peak level 100.0 %
Extraction speed 5.9 X
Track quality 100.0 %
Test CRC EC3C1BA6
Copy CRC EC3C1BA6
Accurately ripped (confidence 1) [8C79A603] (AR v1)
Copy OK

Track 4

Filename M:MusicWhat 8Teemu Viinikainen – Tales of Robert Dickson (2004) [FLAC]4 – Space Dozen.wav

Pre-gap length 0:00:01.24

Peak level 100.0 %
Extraction speed 6.6 X
Track quality 100.0 %
Test CRC 8D93E288
Copy CRC 8D93E288
Accurately ripped (confidence 1) [85829AFE] (AR v1)
Copy OK

Track 5

Filename M:MusicWhat 8Teemu Viinikainen – Tales of Robert Dickson (2004) [FLAC]5 – Duo Improvisation II.wav

Pre-gap length 0:00:01.08

Peak level 78.6 %
Extraction speed 6.1 X
Track quality 100.0 %
Test CRC B4E85978
Copy CRC B4E85978
Accurately ripped (confidence 1) [FDFFE23C] (AR v1)
Copy OK

Track 6

Filename M:MusicWhat 8Teemu Viinikainen – Tales of Robert Dickson (2004) [FLAC]6 – Second Thought.wav

Pre-gap length 0:00:01.16

Peak level 94.6 %
Extraction speed 6.8 X
Track quality 100.0 %
Test CRC 57A9DFEE
Copy CRC 57A9DFEE
Accurately ripped (confidence 1) [22D9AD41] (AR v1)
Copy OK

Track 7

Filename M:MusicWhat 8Teemu Viinikainen – Tales of Robert Dickson (2004) [FLAC]7 – Sneaking Part II.wav

Pre-gap length 0:00:01.78

Peak level 100.0 %
Extraction speed 5.0 X
Track quality 99.9 %
Test CRC D1483C8B
Copy CRC D1483C8B
Accurately ripped (confidence 1) [CEA213EE] (AR v1)
Copy OK

Track 8

Filename M:MusicWhat 8Teemu Viinikainen – Tales of Robert Dickson (2004) [FLAC]8 – The Blues.wav

Peak level 100.0 %
Extraction speed 5.5 X
Track quality 99.9 %
Test CRC C64B130A
Copy CRC C64B130A
Accurately ripped (confidence 1) [D8AE6726] (AR v1)
Copy OK

Track 9

Filename M:MusicWhat 8Teemu Viinikainen – Tales of Robert Dickson (2004) [FLAC]9 – Sneaking Part III.wav

Pre-gap length 0:00:02.48

Peak level 86.4 %
Extraction speed 8.0 X
Track quality 100.0 %
Test CRC 3F44B97A
Copy CRC 3F44B97A
Accurately ripped (confidence 1) [D29C9E20] (AR v1)
Copy OK

Track 10

Filename M:MusicWhat 8Teemu Viinikainen – Tales of Robert Dickson (2004) [FLAC]10 – Kaituri.wav

Pre-gap length 0:00:02.80

Peak level 46.3 %
Extraction speed 6.6 X
Track quality 100.0 %
Test CRC 321A1402
Copy CRC 321A1402
Accurately ripped (confidence 1) [F7157A28] (AR v1)
Copy OK

All tracks accurately ripped

No errors occurred

End of status report

==== Log checksum C9428360B9116FBBD7E26EC92AE28412FD394896897E71552C6D35C85E0513F6 ====

All thanks go to the what.cd (Negative_Creep)

More Music in My Blog
Follow My RSS Channel

Teemu Viinikainen – Tales Of Robert Dickson (2005) Download, Warez, DDL, Free, Full Album, Torrent, Legal.

Download