Tchaikovsky – Cherevichki (Alexander Polianichko) (2010) [BluRay-rip]

Download
Tchaikovsky - Cherevichki (Alexander Polianichko) (2010) [BluRay-rip]

Tchaikovsky – Cherevichki (Alexander Polianichko) (2010) [BluRay-rip]
BluRay-rip | AVC | MKV 1920×1080 / 6215 kbps / 29,97 fps | 143 min | 7,76 Gb
Audio: Russian / DTS / 6ch / 48.0 KHz / 24-bits
Classical | Opus Arte | Sub: English, French, German, Spanish

Based on Gogol’s fantastical and comic story of the Devil’s antics on Christmas Eve, this magical blend of opera and ballet is brought to vivid life in Francesca Zambello’s colourful production. Magnificent set designs (Mikhail Mokrov) and costumes (Tatiana Noginova), and an excellent, largely Russian cast provide authenticity. Splendid dancing by The Royal Ballet and Cossack dancers completes the spectacle.

Cast:
Oxana – Olga Guryakova
Vakula – Vsevolod Grivnov
Solokha – Larissa Diadkova
Chub – Vladimir Matorin
The Devil – Maxim Mikhailov
The Schoolmaster – Viacheslav Voynarovskiy
Pan Golova – Alexander Vassiliev
Panas – John Upperton
His Highness – Sergei Leiferkus
Master of Ceremonies – Jeremy White
Odarka – Olga Sabadoch
Dancers – Mara Galeazzi and Gary Avis, and dancers of The Royal Ballet
Royal Opera Chorus
Orchestra of The Royal Opera House
Conductor – Alexander Polianichko

MediaInfo
General
Unique ID : 243884321105482522250084803521348034827 (0xB77A69651050540EA8D3271A698EE10B)
Complete name : C:Cherevichki.mkv
Format : Matroska
Format version : Version 2
File size : 7.76 GiB
Duration : 2h 23mn
Overall bit rate : 7 749 Kbps
Movie name : Cherevichki
Encoded date : UTC 2017-02-10 11:08:43
Writing application : DVDFab 9.1.6.8
Writing library : libebml v0.7.8 + libmatroska v0.8.1

Video
ID : 1
Format : AVC
Format/Info : Advanced Video Codec
Format profile : High@L4.1
Format settings, CABAC : Yes
Format settings, ReFrames : 2 frames
Codec ID : V_MPEG4/ISO/AVC
Duration : 2h 23mn
Bit rate : 6 215 Kbps
Width : 1 920 pixels
Height : 1 080 pixels
Display aspect ratio : 16:9
Frame rate mode : Constant
Frame rate : 29.970 fps
Color space : YUV
Chroma subsampling : 4:2:0
Bit depth : 8 bits
Scan type : Progressive
Bits/(Pixel*Frame) : 0.100
Stream size : 6.10 GiB (79%)
Writing library : x264 core 142
Encoding settings : cabac=1 / ref=1 / deblock=1:-1:-1 / analyse=0x3:0 / me=hex / subme=5 / psy=0 / mixed_ref=0 / me_range=16 / chroma_me=1 / trellis=0 / 8x8dct=1 / cqm=0 / deadzone=21,11 / fast_pskip=1 / chroma_qp_offset=0 / threads=8 / lookahead_threads=2 / sliced_threads=0 / nr=0 / decimate=1 / interlaced=0 / bluray_compat=0 / constrained_intra=0 / bframes=2 / b_pyramid=0 / b_adapt=1 / b_bias=0 / direct=1 / weightb=1 / open_gop=0 / weightp=0 / keyint=24 / keyint_min=13 / scenecut=40 / intra_refresh=0 / rc=abr / mbtree=0 / bitrate=6215 / ratetol=1.0 / qcomp=0.60 / qpmin=0 / qpmax=69 / qpstep=4 / ip_ratio=1.40 / pb_ratio=1.30 / aq=1:1.00
Default : Yes
Forced : No
Color primaries : BT.709
Transfer characteristics : BT.709
Matrix coefficients : BT.709
Color range : Limited

Audio
ID : 2
Format : DTS
Format/Info : Digital Theater Systems
Mode : 16
Format settings, Endianness : Big
Codec ID : A_DTS
Duration : 2h 23mn
Bit rate mode : Constant
Bit rate : 1 509 Kbps
Channel(s) : 6 channels
Channel positions : Front: L C R, Side: L R, LFE
Sampling rate : 48.0 KHz
Bit depth : 24 bits
Compression mode : Lossy
Stream size : 1.51 GiB (19%)
Language : Russian
Default : Yes
Forced : No

Text #1
ID : 3
Format : VobSub
Codec ID : S_VOBSUB
Codec ID/Info : The same subtitle format used on DVDs
Language : English
Default : Yes
Forced : No

Text #2
ID : 4
Format : VobSub
Codec ID : S_VOBSUB
Codec ID/Info : The same subtitle format used on DVDs
Language : French
Default : No
Forced : No

Text #3
ID : 5
Format : VobSub
Codec ID : S_VOBSUB
Codec ID/Info : The same subtitle format used on DVDs
Language : German
Default : No
Forced : No

Text #4
ID : 6
Format : VobSub
Codec ID : S_VOBSUB
Codec ID/Info : The same subtitle format used on DVDs
Language : Spanish
Default : No
Forced : No

Menu
00:00:00.000 : en:Chapter 01
00:08:34.280 : en:Chapter 02
00:14:57.863 : en:Chapter 03
00:16:39.865 : en:Chapter 04
00:22:40.992 : en:Chapter 05
00:24:37.375 : en:Chapter 06
00:27:49.401 : en:Chapter 07
00:29:57.962 : en:Chapter 08
00:33:35.546 : en:Chapter 09
00:35:50.681 : en:Chapter 10
00:37:30.748 : en:Chapter 11
00:40:55.953 : en:Chapter 12
00:43:40.951 : en:Chapter 13
00:46:08.899 : en:Chapter 14
00:51:04.461 : en:Chapter 15
00:53:01.111 : en:Chapter 16
00:56:14.337 : en:Chapter 17
00:59:05.842 : en:Chapter 18
01:02:14.597 : en:Chapter 19
01:04:30.499 : en:Chapter 20
01:05:37.199 : en:Chapter 21
01:10:03.666 : en:Chapter 22
01:14:47.282 : en:Chapter 23
01:17:25.674 : en:Chapter 24
01:18:20.328 : en:Chapter 25
01:21:50.038 : en:Chapter 26
01:23:26.701 : en:Chapter 27
01:27:01.916 : en:Chapter 28
01:31:38.626 : en:Chapter 29
01:36:08.629 : en:Chapter 30
01:39:20.487 : en:Chapter 31
01:42:36.950 : en:Chapter 32
01:44:22.222 : en:Chapter 33
01:48:25.332 : en:Chapter 34
01:51:31.284 : en:Chapter 35
01:56:19.806 : en:Chapter 36
01:59:36.035 : en:Chapter 37
02:01:52.638 : en:Chapter 38
02:07:38.884 : en:Chapter 39
02:10:36.862 : en:Chapter 40
02:11:32.251 : en:Chapter 41
02:16:05.457 : en:Chapter 42
02:19:08.673 : en:Chapter 43

Tchaikovsky - Cherevichki (Alexander Polianichko) (2010) [BluRay-rip]
Tchaikovsky - Cherevichki (Alexander Polianichko) (2010) [BluRay-rip]
Tchaikovsky - Cherevichki (Alexander Polianichko) (2010) [BluRay-rip]
Tchaikovsky - Cherevichki (Alexander Polianichko) (2010) [BluRay-rip]

Tchaikovsky – Cherevichki (Alexander Polianichko) (2010) [BluRay-rip] Download, Warez, DDL, Free, Full Album, Torrent, Legal.

Download