Tape Five – Tonight Josephine! (2010) *RE-UP*

Download
Tape Five - Tonight Josephine! (2010) *RE-UP*

Tape Five – Tonight Josephine! (2010)
EAC Rip | FLAC (Img) + Cue + Log ~ 360 Mb | MP3 CBR320 ~ 130 Mb
Scans Included (JPG, 300 dpi) | RAR 5% Recovery
Electro Swing, Nu Jazz | Chinchin Records #AC 2050

For years, Tape Five has expanding global record sales and millions of Spotify streams, it´s albums frequently appear in the top 40 charts of the big international online-retailers… Selected songs can be found on about a thousand compilations (“Café del Mar”, “Campari Lounge”, “Swing Mania” and many more), they can be heard on Ad-campaigns from Spain and Hongkong to the USA and are playlisted on countless radio stations. The multinational band based in Germany has successfully played venues including the UK, Switzerland, Holland, France, Hungary, Bulgaria, Romania, Ukraine, Russia, South Korea and Brazil bringing their own brand of uplifting swing and danceable mix of styles selling out the coolest clubs and concert halls all year round.

Tape Five is an international studio project based in Germany created by multi-instrumentalist songwriter-producer Martin Strathausen. Their debut album released in 2006 sold out in Europe, USA and Asia.

Tape Five combines a variety of styles and influences: The focus on Swing or Electro-Swing, but also Bossanova, Latin, Soul and NuJazz with their very own vivid retro interpretation in a classy way.

Official Website | Wiki | All Music

***************

Tape Five - Tonight Josephine! (2010) *RE-UP*

Track List:

01. Introduction Back In Time [00:23]
02. A Cool Cat In Town (feat. Brenda Boykin) [03:55]
03. Bad Boy Good Man (feat. Henrik Wager) [04:18]
04. Pantaloons (feat. Yuliet Topaz) [03:43]
05. Dixie Biscuit (feat. Henrik Wager) [03:49]
06. Madame Coquette (feat. Yuliet Topaz) [03:43]
07. Far Far Away Charles Tone (Charles-Tone mix feat. Brenda Boykin) [04:05]
08. Intermezzo Speakeasy [00:33]
09. The Flappers Delight (feat. Yuliet Topaz) [03:44]
10. Birds Like It (feat. Iain Mackenzie) [04:20]
11. Pousse L’Amour (feat. Yuliet Topaz) [04:02]
12. The Smurf (Tape Five Remix instr.) [03:41]
13. The Sky Is Not The Limit (feat. Iain Mackenzie) [04:10]
14. Alcazar (instr.) [04:39]

EAC Log
Exact Audio Copy V1.0 beta 3 from 29. August 2011

EAC extraction logfile from 25. May 2015, 12:57

Tape Five / Tonight Josephine!

Used drive : PIONEER BD-RW BDR-TD03 Adapter: 0 ID: 1

Read mode : Secure
Utilize accurate stream : Yes
Defeat audio cache : Yes
Make use of C2 pointers : No

Read offset correction : 667
Overread into Lead-In and Lead-Out : No
Fill up missing offset samples with silence : Yes
Delete leading and trailing silent blocks : No
Null samples used in CRC calculations : Yes
Used interface : Native Win32 interface for Win NT & 2000

Used output format : User Defined Encoder
Selected bitrate : 768 kBit/s
Quality : High
Add ID3 tag : No
Command line compressor : C:Program Files (x86)Exact Audio CopyFLACFLAC.EXE
Additional command line options : -6 -V -T "ARTIST=%artist%" -T "TITLE=%title%" -T "ALBUM=%albumtitle%" -T "DATE=%year%" -T "TRACKNUMBER=%tracknr%" -T "GENRE=%genre%" -T "COMMENT=%comment%" -T "BAND=%albuminterpret%" -T "ALBUMARTIST=%albuminterpret%" -T "COMPOSER=%composer%" %haslyrics%–tag-from-file=LYRICS="%lyricsfile%"%haslyrics% -T "DISCNUMBER=%cdnumber%" -T "TOTALDISCS=%totalcds%" -T "TOTALTRACKS=%numtracks%" %hascover%–picture="%coverfile%"%hascover% %source% -o %dest%

TOC of the extracted CD

Track | Start | Length | Start sector | End sector
––––––––––––––––––––––––––––-
1 | 0:00.00 | 0:22.21 | 0 | 1670
2 | 0:22.21 | 3:54.39 | 1671 | 19259
3 | 4:16.60 | 4:17.09 | 19260 | 38543
4 | 8:33.69 | 3:42.55 | 38544 | 55248
5 | 12:16.49 | 3:48.63 | 55249 | 72411
6 | 16:05.37 | 3:42.61 | 72412 | 89122
7 | 19:48.23 | 4:04.66 | 89123 | 107488
8 | 23:53.14 | 0:32.35 | 107489 | 109923
9 | 24:25.49 | 3:43.01 | 109924 | 126649
10 | 28:08.50 | 4:19.30 | 126650 | 146104
11 | 32:28.05 | 4:01.69 | 146105 | 164248
12 | 36:29.74 | 3:40.14 | 164249 | 180762
13 | 40:10.13 | 4:09.60 | 180763 | 199497
14 | 44:19.73 | 4:38.44 | 199498 | 220391

Range status and errors

Selected range

Filename C:UsersDerisDesktoptape510Tape Five – Tonight Josephine!.wav

Suspicious position 0:32:25

Peak level 99.4 %
Extraction speed 3.0 X
Range quality 99.9 %
Test CRC 83E0EB0C
Copy CRC 83E0EB0C
Copy finished

There were errors

AccurateRip summary

Track 1 accurately ripped (confidence 29) [036A2E35] (AR v2)
Track 2 accurately ripped (confidence 29) [F09ECB61] (AR v2)
Track 3 accurately ripped (confidence 29) [D6BAC0A7] (AR v2)
Track 4 accurately ripped (confidence 29) [CE40FCE7] (AR v2)
Track 5 accurately ripped (confidence 29) [FD899D35] (AR v2)
Track 6 accurately ripped (confidence 29) [CA3B47C8] (AR v2)
Track 7 accurately ripped (confidence 29) [FE58AF23] (AR v2)
Track 8 accurately ripped (confidence 29) [8638DEA2] (AR v2)
Track 9 accurately ripped (confidence 29) [0F24FCE8] (AR v2)
Track 10 accurately ripped (confidence 29) [E07C815B] (AR v2)
Track 11 accurately ripped (confidence 29) [D711D9D6] (AR v2)
Track 12 accurately ripped (confidence 29) [FFB6E96C] (AR v2)
Track 13 accurately ripped (confidence 29) [AA2E293C] (AR v2)
Track 14 accurately ripped (confidence 29) [B4EB813B] (AR v2)

All tracks accurately ripped

End of status report

–– CUETools DB Plugin V2.1.3

[CTDB TOCID: pSMXo8HX9EkllAX4aXJiBuWKjZI-] found, Submit result: pSMXo8HX9EkllAX4aXJiBuWKjZI- has been confirmed
[dce0ab47] (29/30) Accurately ripped
[350d0e0a] (01/30) No match

==== Log checksum E3F7A56147D81D8225D56BA323B030851C3A7796CC9BFB8CB600E93D7A6A97D3 ====

DR Log
foobar2000 1.2.6 / Dynamic Range Meter 1.1.1
log date: 2015-05-26 23:44:59

––––––––––––––––––––––––––––––––––––––––
Analyzed: Tape Five / Tonight Josephine!
––––––––––––––––––––––––––––––––––––––––

DR Peak RMS Duration Track
––––––––––––––––––––––––––––––––––––––––
DR8 -1.64 dB -13.05 dB 0:22 01-Introduction Back In Time
DR7 -0.10 dB -8.36 dB 3:55 02-A Cool Cat In Town (feat. Brenda Boykin)
DR8 -0.05 dB -9.08 dB 4:17 03-Bad Boy Good Man (feat. Henrik Wager)
DR7 -0.09 dB -8.14 dB 3:43 04-Pantaloons (feat. Yuliet Topaz)
DR8 -0.09 dB -9.60 dB 3:49 05-Dixie Biscuit (feat. Henrik Wager)
DR8 -0.05 dB -8.93 dB 3:43 06-Madame Coquette (feat. Yuliet Topaz)
DR7 -0.13 dB -8.49 dB 4:05 07-Far Far Away Charles Tone (Charles-Tone mix feat. Brenda Boykin)
DR10 -3.64 dB -17.87 dB 0:32 08-Intermezzo Speakeasy
DR8 -0.11 dB -9.31 dB 3:43 09-The Flappers Delight (feat. Yuliet Topaz)
DR8 -0.07 dB -8.97 dB 4:19 10-Birds Like It (feat. Iain Mackenzie)
DR7 -0.06 dB -8.08 dB 4:02 11-Pousse L’Amour (feat. Yuliet Topaz)
DR7 -0.06 dB -8.46 dB 3:40 12-The Smurf (Tape Five Remix instr.)
DR8 -0.11 dB -9.03 dB 4:10 13-The Sky Is Not The Limit (feat. Iain Mackenzie)
DR7 -0.09 dB -8.88 dB 4:39 14-Alcazar (instr.)
––––––––––––––––––––––––––––––––––––––––

Number of tracks: 14
Official DR value: DR8

Samplerate: 44100 Hz
Channels: 2
Bits per sample: 16
Bitrate: 945 kbps
Codec: FLAC
================================================================================

CUETools Log
[CUETools log; Date: 26.05.2015 23:25:22; Version: 2.1.5]
[CTDB TOCID: pSMXo8HX9EkllAX4aXJiBuWKjZI-] found.
Track | CTDB Status
1 | (30/31) Accurately ripped
2 | (30/31) Accurately ripped
3 | (30/31) Accurately ripped
4 | (30/31) Accurately ripped
5 | (30/31) Accurately ripped
6 | (30/31) Accurately ripped
7 | (30/31) Accurately ripped
8 | (30/31) Accurately ripped
9 | (30/31) Accurately ripped
10 | (30/31) Accurately ripped
11 | (30/31) Accurately ripped
12 | (30/31) Accurately ripped
13 | (30/31) Accurately ripped
14 | (30/31) Accurately ripped
[AccurateRip ID: 00175dc1-00feb527-b80b7a0e] found.
Track [ CRC | V2 ] Status
01 [60433fcf|036a2e35] (06+29/42) Accurately ripped
02 [38a7b8d8|f09ecb61] (06+29/42) Accurately ripped
03 [af269eaf|d6bac0a7] (06+29/42) Accurately ripped
04 [3c8b12bb|ce40fce7] (06+29/42) Accurately ripped
05 [47a5fa12|fd899d35] (06+29/42) Accurately ripped
06 [60eea40b|ca3b47c8] (06+29/42) Accurately ripped
07 [2f029bee|fe58af23] (06+29/42) Accurately ripped
08 [708b2e48|8638dea2] (06+29/42) Accurately ripped
09 [5ca19f59|0f24fce8] (06+29/42) Accurately ripped
10 [d46b1b9b|e07c815b] (06+29/42) Accurately ripped
11 [5829097c|d711d9d6] (06+29/42) Accurately ripped
12 [c9fb8d9c|ffb6e96c] (06+29/42) Accurately ripped
13 [b4bd9548|aa2e293c] (06+29/42) Accurately ripped
14 [9f2262df|b4eb813b] (06+29/42) Accurately ripped
Offsetted by -30:
01 [d719c06d] (02/42) Accurately ripped
02 [47172e82] (02/42) Accurately ripped
03 [d4bb828d] (02/42) Accurately ripped
04 [b9219bcf] (02/42) Accurately ripped
05 [0965479c] (02/42) Accurately ripped
06 [c7b6ba71] (02/42) Accurately ripped
07 [3f8fa088] (02/42) Accurately ripped
08 [c63ab270] (02/42) Accurately ripped
09 [32ed4081] (02/42) Accurately ripped
10 [df974a35] (02/42) Accurately ripped
11 [14d7dcc2] (02/42) Accurately ripped
12 [3373e84c] (02/42) Accurately ripped
13 [2769c5ac] (02/42) Accurately ripped
14 [0b746f23] (02/42) Accurately ripped

Track Peak [ CRC32 ] [W/O NULL] [ LOG ]
– 99,4 [83E0EB0C] [7AE02D3E] CRC32
01 82,7 [DB8D95E4] [8EEA23DC]
02 98,8 [3C3E3C8F] [2CA6CFF9]
03 99,4 [0B836ECF] [064DE5BB]
04 98,9 [A0332287] [488B3EBF]
05 98,9 [29F88524] [611E23A3]
06 99,4 [B7539630] [105E5F0F]
07 98,5 [8C4874AC] [DE7B37E0]
08 65,7 [EA89C565] [CABB7097]
09 98,7 [C0D0FFFA] [E9F25561]
10 99,2 [FA1170FE] [6470B9D3]
11 99,3 [6D8CD758] [0C8A84EE]
12 99,3 [062BC3A8] [54E4852C]
13 98,7 [9777BE07] [85B63574]
14 98,9 [E0E77BBC] [D73BA88A]

Tape Five - Tonight Josephine! (2010) *RE-UP*

All thanks go to Boris1

>>> Tape Five in my Blog <<<

Download from icerbox.com:

Tape Five – Tonight Josephine! (2010) *RE-UP* Download, Warez, DDL, Free, Full Album, Torrent, Legal.

Download