Tape Five – Geraldines Remixes (2013) [Limited Edition] *RE-UP*

Download
Tape Five - Geraldines Remixes (2013) [Limited Edition] *RE-UP*

Tape Five – Geraldines Remixes (2013)
EAC Rip | FLAC (Img) + Cue + Log ~ 324 Mb | MP3 CBR320 ~ 120 Mb
Scans Included (JPG, 300 dpi) | RAR 5% Recovery
Electro Swing, Nu Jazz, Dance, Club House | Chinchin Records #AC 2093

For years, Tape Five has expanding global record sales and millions of Spotify streams, it´s albums frequently appear in the top 40 charts of the big international online-retailers… Selected songs can be found on about a thousand compilations (“Café del Mar”, “Campari Lounge”, “Swing Mania” and many more), they can be heard on Ad-campaigns from Spain and Hongkong to the USA and are playlisted on countless radio stations. The multinational band based in Germany has successfully played venues including the UK, Switzerland, Holland, France, Hungary, Bulgaria, Romania, Ukraine, Russia, South Korea and Brazil bringing their own brand of uplifting swing and danceable mix of styles selling out the coolest clubs and concert halls all year round.

Tape Five is an international studio project based in Germany created by multi-instrumentalist songwriter-producer Martin Strathausen. Their debut album released in 2006 sold out in Europe, USA and Asia.

Tape Five combines a variety of styles and influences: The focus on Swing or Electro-Swing, but also Bossanova, Latin, Soul and NuJazz with their very own vivid retro interpretation in a classy way.

Official Website | Wiki | All Music

***************

Tape Five - Geraldines Remixes (2013) [Limited Edition] *RE-UP*

Track List:

01. Geraldine’s Routine (Spin Around radio mix) [03:35]
02. Geraldine’s Routine (Bart & Baker mix) [04:42]
03. Geraldine’s Routine (Step and Stomp mix) [03:48]
04. Madame Coquette (Fab Samperi radio mix) [03:10]
05. Madame Coquette (Fab Samperi extended mix) [05:11]
06. Madame Coquette (Aerophon bass mix) [03:43]
07. Bad Boy Goodman (Pep’s Show Boys & Martin Dee mix) [04:48]
08. Bad Boy Goodman (Pep’s Show Boys & Martin Dee extended mix) [06:10]
09. Bad Boy Goodman (Aerophon bass mix) [03:46]
10. Geraldine’s Routine (Step and Stomp mix) (instrumental) [03:53]

EAC Log
Exact Audio Copy V1.0 beta 3 from 29. August 2011

EAC extraction logfile from 22. May 2015, 14:11

Tape Five / Geraldine’s Remixes

Used drive : PIONEER BD-RW BDR-TD03 Adapter: 0 ID: 1

Read mode : Secure
Utilize accurate stream : Yes
Defeat audio cache : Yes
Make use of C2 pointers : No

Read offset correction : 667
Overread into Lead-In and Lead-Out : No
Fill up missing offset samples with silence : Yes
Delete leading and trailing silent blocks : No
Null samples used in CRC calculations : Yes
Used interface : Native Win32 interface for Win NT & 2000

Used output format : User Defined Encoder
Selected bitrate : 768 kBit/s
Quality : High
Add ID3 tag : No
Command line compressor : C:Program Files (x86)Exact Audio CopyFLACFLAC.EXE
Additional command line options : -6 -V -T "ARTIST=%artist%" -T "TITLE=%title%" -T "ALBUM=%albumtitle%" -T "DATE=%year%" -T "TRACKNUMBER=%tracknr%" -T "GENRE=%genre%" -T "COMMENT=%comment%" -T "BAND=%albuminterpret%" -T "ALBUMARTIST=%albuminterpret%" -T "COMPOSER=%composer%" %haslyrics%–tag-from-file=LYRICS="%lyricsfile%"%haslyrics% -T "DISCNUMBER=%cdnumber%" -T "TOTALDISCS=%totalcds%" -T "TOTALTRACKS=%numtracks%" %hascover%–picture="%coverfile%"%hascover% %source% -o %dest%

TOC of the extracted CD

Track | Start | Length | Start sector | End sector
––––––––––––––––––––––––––––-
1 | 0:00.00 | 3:34.22 | 0 | 16071
2 | 3:34.22 | 4:42.00 | 16072 | 37221
3 | 8:16.22 | 3:47.50 | 37222 | 54296
4 | 12:03.72 | 3:09.05 | 54297 | 68476
5 | 15:13.02 | 5:10.01 | 68477 | 91727
6 | 20:23.03 | 3:42.61 | 91728 | 108438
7 | 24:05.64 | 4:47.54 | 108439 | 130017
8 | 28:53.43 | 6:09.43 | 130018 | 157735
9 | 35:03.11 | 3:45.51 | 157736 | 174661
10 | 38:48.62 | 3:52.34 | 174662 | 192095

Range status and errors

Selected range

Filename C:UsersDerisDesktoptape513Tape Five – Geraldine’s Remixes.wav

Peak level 100.0 %
Extraction speed 4.4 X
Range quality 100.0 %
Test CRC 46D5C2F9
Copy CRC 46D5C2F9
Copy OK

No errors occurred

AccurateRip summary

Track 1 accurately ripped (confidence 1) [9C242872] (AR v2)
Track 2 accurately ripped (confidence 2) [4C44B5A1] (AR v2)
Track 3 accurately ripped (confidence 2) [04626655] (AR v2)
Track 4 accurately ripped (confidence 1) [A0881D77] (AR v2)
Track 5 accurately ripped (confidence 1) [FCF54209] (AR v2)
Track 6 accurately ripped (confidence 1) [5DB290C2] (AR v2)
Track 7 accurately ripped (confidence 1) [49587DD4] (AR v2)
Track 8 accurately ripped (confidence 2) [45B87854] (AR v2)
Track 9 accurately ripped (confidence 1) [D0C0167E] (AR v2)
Track 10 accurately ripped (confidence 2) [00B831A7] (AR v2)

All tracks accurately ripped

End of status report

–– CUETools DB Plugin V2.1.3

[CTDB TOCID: Gp6ausWryRwRvNYyOAjSG28gzpU-] found, Submit result: Gp6ausWryRwRvNYyOAjSG28gzpU- has been confirmed
[745b0b13] (2/2) Accurately ripped

==== Log checksum C3ED22FBAF80ED91DBF9B6833B7BBFCBC90184B9575F36967B4C7583216610A9 ====

DR Log
foobar2000 1.2.6 / Dynamic Range Meter 1.1.1
log date: 2015-05-23 08:11:55

––––––––––––––––––––––––––––––––––––––––
Analyzed: Tape Five / Geraldine’s Remixes
––––––––––––––––––––––––––––––––––––––––

DR Peak RMS Duration Track
––––––––––––––––––––––––––––––––––––––––
DR6 -0.10 dB -7.23 dB 3:34 01-Geraldine’s Routine (Spin Around radio mix)
DR8 0.00 dB -9.74 dB 4:42 02-Geraldine’s Routine (Bart & Baker mix)
DR6 -0.10 dB -6.90 dB 3:48 03-Geraldine’s Routine (Step and Stomp mix)
DR6 0.00 dB -8.10 dB 3:09 04-Madame Coquette (Fab Samperi radio mix)
DR6 0.00 dB -8.92 dB 5:10 05-Madame Coquette (Fab Samperi extended mix)
DR5 -0.14 dB -6.79 dB 3:43 06-Madame Coquette (Aerophon bass mix)
DR6 0.00 dB -7.20 dB 4:48 07-Bad Boy Goodman (Pep’s Show Boys & Martin Dee mix)
DR6 0.00 dB -7.00 dB 6:10 08-Bad Boy Goodman (Pep’s Show Boys & Martin Dee extended mix)
DR6 -0.05 dB -6.93 dB 3:46 09-Bad Boy Goodman (Aerophon bass mix)
DR6 -0.10 dB -7.40 dB 3:52 10-Geraldine’s Routine (Step and Stomp mix) (instrumental)
––––––––––––––––––––––––––––––––––––––––

Number of tracks: 10
Official DR value: DR6

Samplerate: 44100 Hz
Channels: 2
Bits per sample: 16
Bitrate: 955 kbps
Codec: FLAC
================================================================================

CUETools Log
[CUETools log; Date: 23.05.2015 8:01:31; Version: 2.1.5]
[CTDB TOCID: Gp6ausWryRwRvNYyOAjSG28gzpU-] found.
Track | CTDB Status
1 | (3/3) Accurately ripped
2 | (3/3) Accurately ripped
3 | (3/3) Accurately ripped
4 | (3/3) Accurately ripped
5 | (3/3) Accurately ripped
6 | (3/3) Accurately ripped
7 | (3/3) Accurately ripped
8 | (3/3) Accurately ripped
9 | (3/3) Accurately ripped
10 | (3/3) Accurately ripped
[AccurateRip ID: 000fba5b-007f23ed-770a010a] found.
Track [ CRC | V2 ] Status
01 [1402bc63|9c242872] (0+1/1) Accurately ripped
02 [88a564d5|4c44b5a1] (0+2/2) Accurately ripped
03 [1e311470|04626655] (0+2/2) Accurately ripped
04 [93ac63f6|a0881d77] (0+1/1) Accurately ripped
05 [cb69223e|fcf54209] (0+1/1) Accurately ripped
06 [cc9c3fda|5db290c2] (0+1/1) Accurately ripped
07 [e2ca4fde|49587dd4] (0+1/1) Accurately ripped
08 [b3fa75f2|45b87854] (0+2/2) Accurately ripped
09 [149d054f|d0c0167e] (0+1/1) Accurately ripped
10 [7895cc50|00b831a7] (0+2/2) Accurately ripped

Track Peak [ CRC32 ] [W/O NULL] [ LOG ]
– 100,0 [46D5C2F9] [2AA66303] CRC32
01 98,8 [0A285ECF] [804B1AB6]
02 100,0 [A3B43627] [8FD28435]
03 98,8 [7803A1B8] [8DEDFA6B]
04 100,0 [B0BAC36F] [6BEC996A]
05 100,0 [FDF6C128] [2616FF86]
06 98,4 [716F9D5E] [0A362A43]
07 100,0 [29BFA448] [F49C3809]
08 100,0 [EA60ED72] [5D6E4977]
09 99,4 [B7264C6C] [E5BD511D]
10 98,8 [C71A2F9A] [A4F595CA]

Tape Five - Geraldines Remixes (2013) [Limited Edition] *RE-UP*

All thanks go to Boris1

>>> Tape Five in my Blog <<<

Download from icerbox.com:

Tape Five – Geraldines Remixes (2013) [Limited Edition] *RE-UP* Download, Warez, DDL, Free, Full Album, Torrent, Legal.

Download