Tape Five – Circus Maximus (2015) *RE-UP*

Download
Tape Five - Circus Maximus (2015) *RE-UP*

Tape Five – Circus Maximus (2015)
EAC Rip | FLAC (Img) + Cue + Log ~ 368 Mb | MP3 CBR320 ~ 130 Mb
Scans Included (JPG, 600 dpi) | RAR 5% Recovery
Electro Swing, Nu Jazz, Funky, Club House | ChinChin Records #AC 2101

For years, Tape Five has expanding global record sales and millions of Spotify streams, it´s albums frequently appear in the top 40 charts of the big international online-retailers… Selected songs can be found on about a thousand compilations (“Café del Mar”, “Campari Lounge”, “Swing Mania” and many more), they can be heard on Ad-campaigns from Spain and Hongkong to the USA and are playlisted on countless radio stations. The multinational band based in Germany has successfully played venues including the UK, Switzerland, Holland, France, Hungary, Bulgaria, Romania, Ukraine, Russia, South Korea and Brazil bringing their own brand of uplifting swing and danceable mix of styles selling out the coolest clubs and concert halls all year round.

The brandnew album “Circus Maximus” is convincing with it´s irresistable pop mass appeal Martin Strathausen, ring leader and director of this melting pot, welcomes his top artists into his Circus tent or rather his studio arena. Once again the tried, tested and trusted Tape Five brass section, and the vocals of Brenda Boykin (California), Henrik Wager and Iain Mackenzie (both UK). New in the ensemble is Dionne Wudu (South Africa) – thrilling us with tracks like “Mad Dogs On The Scene” with her powerful and soulfull voice.

After the fanfare and drum-rolls the curtain rises, and “Circus Maximus” entertains the audience with a multicolored program. Juggling instinctively with swinging housebeats (“Sax Me Up”), charleston-clarinets (“Forever Young”) and crooning vocals in the style of Frankieboy Sinatra (“That’s The Way I Travel”), they perform magic with the sonic elements from the balcans (“Gipsy VIP”) and powerful jazz drumming styles of the late Gene Krupa (“The Big Bang”), and in a trapeze act without a safteynet letting swing and punk (“Swing Punk”) respectively swing and hiphop (“Swing With Bling”) fly against each other. In the encore part they perform a remix for the WDR Bigband (“Hercab”) and a collaboration with the DJ/producers Bart & Baker from Paris (“Swing You Winners”).

Swing, Electro-swing, Nujazz, Soul, R&B, HipHop, Disco, House and Balcan – under the pop roof of “Circus Maximus” there is enough space for sounds of the most diverse origins. On their fifth album Tape Five present themselves with pop and mass appeal as never before. Their fun songs also this time will get the party mob on the floor, without being superficial or trivial. That´s fun music with substance…

~ tapefive.com
Official Website | Wiki | All Music

***************

Tape Five - Circus Maximus (2015) *RE-UP*

Track List:

01. Introduction – Le Grand Salon [00:31]
02. Mad Dogs On The Scene [03:26]
03. Sax me Up [03:50]
04. Gipsy VIP (album edit) [03:18]
05. The Big Bang [03:12]
06. Forever Young [03:44]
07. Circus Maximus [03:31]
08. Swing Punk [03:40]
09. Thats the Way I Travel [03:53]
10. Intermezzo Tape Five Radio [00:30]
11. Swing with Bling [04:41]
12. Hercab? (WDR Bigband feat. Gianluigi Trovesi) – Tape Five RMX [03:25]
13. Cooking in my Kitchen [03:28]
14. Swing you Winners (feat. Bart & Baker) [02:57]
15. Outroduction (Urban Absurdium) [00:37]

EAC Log
Exact Audio Copy V1.0 beta 3 from 29. August 2011

Отчёт EAC об извлечении, выполненном 10. мая 2015, 2:42

Tape Five / Circus Maximus

Дисковод: PLEXTOR DVDR PX-880SA Adapter: 1 ID: 0

Режим чтения : Достоверность
Использование точного потока : Да
Отключение кэша аудио : Да
Использование указателей C2 : Нет

Коррекция смещения при чтении : 6
Способность читать области Lead-in и Lead-out : Нет
Заполнение пропущенных сэмплов тишиной : Да
Удаление блоков с тишиной в начале и конце : Нет
При вычислениях CRC использовались нулевые сэмплы : Да
Интерфейс : Установленный внешний ASPI-интерфейс

Выходной формат : Пользовательский кодировщик
Выбранный битрейт : 1024 kBit/s
Качество : Высокий
Добавление ID3-тега : Нет
Утилита сжатия : C:Program FilesExact Audio CopyFLACFLAC.EXE
Дополнительные параметры : -10 -V -T "ARTIST=%artist%" -T "ALBUM=%albumtitle%" -T "DATE=%year%" -T "GENRE=%genre%" -T "COMMENT=ripped by izia1956" %source%

TOC извлечённого CD

Трек | Старт | Длительность | Начальный сектор | Конечный сектор
––––––––––––––––––––––––––––––––––-
1 | 0:00.00 | 0:30.01 | 0 | 2250
2 | 0:30.01 | 3:25.68 | 2251 | 17693
3 | 3:55.69 | 3:49.53 | 17694 | 34921
4 | 7:45.47 | 3:17.50 | 34922 | 49746
5 | 11:03.22 | 3:11.06 | 49747 | 64077
6 | 14:14.28 | 3:43.72 | 64078 | 80874
7 | 17:58.25 | 3:30.62 | 80875 | 96686
8 | 21:29.12 | 3:39.06 | 96687 | 113117
9 | 25:08.18 | 3:52.02 | 113118 | 130519
10 | 29:00.20 | 0:29.13 | 130520 | 132707
11 | 29:29.33 | 4:40.38 | 132708 | 153745
12 | 34:09.71 | 3:24.50 | 153746 | 169095
13 | 37:34.46 | 3:27.64 | 169096 | 184684
14 | 41:02.35 | 2:56.35 | 184685 | 197919
15 | 43:58.70 | 0:36.46 | 197920 | 200665

Характеристики диапазона извлечения и сообщения об ошибках

Выбранный диапазон

Имя файла D:BitCometTape Five – Circus Maximus(2015)Tape Five – Circus Maximus.wav

Пиковый уровень 99.3 %
Скорость извлечения 2.9 X
Качество диапазона 100.0 %
CRC теста A929F3AF
CRC копии A929F3AF
Копирование… OK

Ошибок не произошло

AccurateRip: сводка

Трек 1 отсутствует в базе данных
Трек 2 отсутствует в базе данных
Трек 3 отсутствует в базе данных
Трек 4 отсутствует в базе данных
Трек 5 отсутствует в базе данных
Трек 6 отсутствует в базе данных
Трек 7 отсутствует в базе данных
Трек 8 отсутствует в базе данных
Трек 9 отсутствует в базе данных
Трек 10 отсутствует в базе данных
Трек 11 отсутствует в базе данных
Трек 12 отсутствует в базе данных
Трек 13 отсутствует в базе данных
Трек 14 отсутствует в базе данных
Трек 15 отсутствует в базе данных

Ни одного трека нет в базе AccurateRip

Конец отчёта

==== Контрольная сумма отчёта EDAC5F38DE27CCEAB7F04B815FFD858E3B9B2C23C4E416F80DE093D422D6DCE6 ====

DR Log
foobar2000 1.2.6 / Dynamic Range Meter 1.1.1
log date: 2015-05-10 22:51:41

––––––––––––––––––––––––––––––––––––––––
Analyzed: Tape Five / Circus Maximus
––––––––––––––––––––––––––––––––––––––––

DR Peak RMS Duration Track
––––––––––––––––––––––––––––––––––––––––
DR9 -0.06 dB -11.90 dB 0:30 01-Introduction – Le Grand Salon
DR6 -0.10 dB -7.37 dB 3:26 02-Mad Dogs On The Scene
DR7 -0.10 dB -8.09 dB 3:50 03-Sax me Up
DR6 -0.10 dB -6.76 dB 3:18 04-Gipsy VIP (album edit)
DR6 -0.10 dB -7.58 dB 3:11 05-The Big Bang
DR7 -0.10 dB -8.14 dB 3:44 06-Forever Young
DR7 -0.10 dB -7.54 dB 3:31 07-Circus Maximus
DR6 -0.10 dB -7.04 dB 3:39 08-Swing Punk
DR7 -0.10 dB -7.56 dB 3:52 09-Thats the Way I Travel
DR9 -0.06 dB -11.24 dB 0:29 10-Intermezzo Tape Five Radio
DR8 -0.10 dB -8.82 dB 4:41 11-Swing with Bling
DR7 -0.10 dB -8.17 dB 3:25 12-Hercab? (WDR Bigband feat. Gianluigi Trovesi) – Tape Five RMX
DR6 -0.10 dB -7.84 dB 3:28 13-Cooking in my Kitchen
DR7 -0.10 dB -8.54 dB 2:56 14-Swing you Winners (feat. Bart & Baker)
DR8 -0.06 dB -10.77 dB 0:37 15-Outroduction (Urban Absurdium)
––––––––––––––––––––––––––––––––––––––––

Number of tracks: 15
Official DR value: DR7

Samplerate: 44100 Hz
Channels: 2
Bits per sample: 16
Bitrate: 1031 kbps
Codec: FLAC
================================================================================

CUETools Log
[CUETools log; Date: 10.05.2015 22:48:47; Version: 2.1.5]
[CTDB TOCID: 5d_co7lfjijyjnamn7G4lexBwoo-] disk not present in database.
[AccurateRip ID: 0018da29-011e46b1-b60a730f] disk not present in database.

Track Peak [ CRC32 ] [W/O NULL] [ LOG ]
– 99,3 [A929F3AF] [C9EFCD99] CRC32
01 99,3 [D2AF3454] [78F2C3B7]
02 98,8 [9313AB52] [26173F00]
03 98,8 [3ECCF4BB] [6B785865]
04 98,8 [A2D70234] [D33D1B91]
05 98,8 [02A4323A] [A751914B]
06 98,8 [363D5842] [E30E7B04]
07 98,8 [9542EC93] [5EB99C9A]
08 98,8 [4A876CCA] [D4C21193]
09 98,8 [9D5635F7] [8F09121E]
10 99,3 [6DCE335F] [4971AC62]
11 98,8 [F30BE761] [2F65CA49]
12 98,8 [E59328A3] [4E889643]
13 98,8 [CD6599C2] [C8C0D00C]
14 98,8 [15D1A477] [EA94D68E]
15 99,3 [7F6C2D36] [81EBB64C]

Tape Five - Circus Maximus (2015) *RE-UP*

All thanks go to izia1956

>>> Tape Five in my Blog <<<

Download from icerbox.com:

Tape Five – Circus Maximus (2015) *RE-UP* Download, Warez, DDL, Free, Full Album, Torrent, Legal.

Download