Tantra – Terra (2003)

Download
Tantra - Terra (2003)

Tantra – Terra (2003)
EAC Rip | FLAC (image+.cue+log) – 444 MB | MP3 CBR 320 kbps (LAME 3.93) – 155 MB | Covers – 32 MB
Genre: Progressive Rock | RAR 3% Rec. | Label: Self-released

Tantra is a band from Portugal that made three albums in the years 1978-1981. Two of them have now CD releases on Musea, “Mistérios e maravilhas” (1977) and “Holocausto” (1979). After finding an old Revox tape of the first Tantra concert out of 1977 and working on this for an CD release, Manuel Cardoso fell in love again with the musical concept of Tantra and asked the old band members if they where interested in reforming the band. But nobody could make it so Manuel decided to search for other musicians to form a new Tantra with the same musical spirit. The band which was born, rehearsed every weekend for 8 to 12 hours in the years 1998-2000. But the band had no easy path to follow which eventually led to their first CD in this line-up. And it would cost almost two years before they had finally recorded this album.
They are playing a kind of “Symphonic & Progressive Fusion” with a warm Latin touch because of the Portuguese vocals.

Progarchives

Tracklist:
01. Kali
02. The Sensible Road
03. Edge of Oblivion
04. Solitude
05. Terra
06. Return
07. Drowning Dawn
08. Scorpio
09. Vertigo
10. Burlesque Theatre
11. Zephyrus

Total time: 01:05:49

EAC log
Exact Audio Copy V1.0 beta 2 from 29. April 2011

Отчёт EAC об извлечении, выполненном 22. апреля 2014, 14:02

Tantra / Terra

Дисковод: ATAPI iHAP122 W Adapter: 3 ID: 1

Режим чтения : Достоверность
Использование точного потока : Да
Отключение кэша аудио : Да
Использование указателей C2 : Нет

Коррекция смещения при чтении : 6
Способность читать области Lead-in и Lead-out : Нет
Заполнение пропущенных сэмплов тишиной : Да
Удаление блоков с тишиной в начале и конце : Нет
При вычислениях CRC использовались нулевые сэмплы : Да
Интерфейс : Встроенный Win32-интерфейс для Win NT/2000

Выходной формат : Внутренние WAV-операции
Формат сэмплов : 44.100 Гц; 16 бит; стерео

TOC извлечённого CD

Трек | Старт | Длительность | Начальный сектор | Конечный сектор
––––––––––––––––––––––––––––––––––-
1 | 0:00.00 | 8:32.38 | 0 | 38437
2 | 8:32.38 | 3:39.42 | 38438 | 54904
3 | 12:12.05 | 12:21.48 | 54905 | 110527
4 | 24:33.53 | 5:33.10 | 110528 | 135512
5 | 30:06.63 | 9:50.40 | 135513 | 179802
6 | 39:57.28 | 4:41.43 | 179803 | 200920
7 | 44:38.71 | 3:13.61 | 200921 | 215456
8 | 47:52.57 | 3:55.54 | 215457 | 233135
9 | 51:48.36 | 5:45.19 | 233136 | 259029
10 | 57:33.55 | 5:54.20 | 259030 | 285599
11 | 63:28.00 | 2:21.22 | 285600 | 296196

Характеристики диапазона извлечения и сообщения об ошибках

Выбранный диапазон

Имя файла D:obrazTantra – Terra (2003)Tantra – TerraTantra – Terra.wav

Пиковый уровень 100.0 %
Скорость извлечения 8.6 X
Качество диапазона 100.0 %
CRC теста 01BAF972
CRC копии 01BAF972
Копирование… OK

Ошибок не произошло

AccurateRip: сводка

Трек 1 отсутствует в базе данных
Трек 2 отсутствует в базе данных
Трек 3 отсутствует в базе данных
Трек 4 отсутствует в базе данных
Трек 5 отсутствует в базе данных
Трек 6 отсутствует в базе данных
Трек 7 отсутствует в базе данных
Трек 8 отсутствует в базе данных
Трек 9 отсутствует в базе данных
Трек 10 отсутствует в базе данных
Трек 11 отсутствует в базе данных

Ни одного трека нет в базе AccurateRip

Конец отчёта

==== Контрольная сумма отчёта CEE023A2E1E04BC28A34F5BE77C6B308B510EBF876A18591B13E2105E6B9517B ====

CUETools log
[CUETools log; Date: 16.07.2017 13:56:32; Version: 2.1.4]
[CTDB TOCID: zG_X0wJXzGWpgVjcufO7aTAx2M4-] found.
Track | CTDB Status
1 | (1/1) Accurately ripped
2 | (1/1) Accurately ripped
3 | (1/1) Accurately ripped
4 | (1/1) Accurately ripped
5 | (1/1) Accurately ripped
6 | (1/1) Accurately ripped
7 | (1/1) Accurately ripped
8 | (1/1) Accurately ripped
9 | (1/1) Accurately ripped
10 | (1/1) Accurately ripped
11 | (1/1) Accurately ripped
[AccurateRip ID: 001ea9b8-0102b536-9a0f6d0b] found.
Track [ CRC | V2 ] Status
01 [a8c6c2d0|d01b95a5] (0+1/1) Accurately ripped
02 [62c9bf21|edc9ab5d] (0+1/1) Accurately ripped
03 [18a208cb|2585069d] (0+1/1) Accurately ripped
04 [0b3167cf|4d933f56] (0+1/1) Accurately ripped
05 [9460977f|f9fe0c24] (0+1/1) Accurately ripped
06 [fd94b619|94db6766] (0+1/1) Accurately ripped
07 [8a06c99d|e558a0c8] (0+1/1) Accurately ripped
08 [91947017|ad516a8a] (0+1/1) Accurately ripped
09 [51732ce7|a0e4b2a6] (0+1/1) Accurately ripped
10 [1a14eb00|bfdf7c16] (0+1/1) Accurately ripped
11 [8ef1eef0|1243409f] (0+1/1) Accurately ripped

Track Peak [ CRC32 ] [W/O NULL] [ LOG ]
– 100,0 [01BAF972] [1306E0AB] CRC32
01 100,0 [C7F297CF] [5EB04487]
02 100,0 [7875E42A] [D19BE141]
03 100,0 [0BF69933] [218DB62B]
04 100,0 [62A47676] [4AAF223D]
05 100,0 [E0F472E0] [BD50A189]
06 100,0 [3079E26A] [777556EC]
07 100,0 [EA1C6F09] [39F0923C]
08 99,4 [ED0E6DF7] [D099C066]
09 100,0 [8F1BB8A9] [2118BE70]
10 100,0 [EDE48454] [FB6289AD]
11 100,0 [0867749B] [BB4BA8E2]

Thanks to novox

See also:
Tantra – Misterios e Maravilhas (1977) [Reissue 2007]
Tantra – Holocausto (1979) [Reissue 2002]

Welcome to My Blog!

Tantra – Terra (2003) Download, Warez, DDL, Free, Full Album, Torrent, Legal.

Download