Tankard – Thirst (DVD) (2008)

Download
Tankard - Thirst (DVD) (2008)

Tankard – Thirst (DVD) (2008)
DVD rip | MP4: Main@L4 (720 x 586, 3455 Kbps) | Audio: MP3 (1608 Kbps: VBR) | 35min + 4min | English | 976 mb
Genre: documentary, heavy metal, thrash metal, speed metal

Tankard are a legendary thrash/speed metal band from Germany and this is taken from the DVD found within the album Thirst. It consists of a 35 minute documentary called Drinking Man’s Band plus a music video for the song
"Stay Thirsty".

Tankard - Thirst (DVD) (2008)
MediaInfo (MAIN) (LOG)
General
Complete name : E:FLACAAA 2017VidsTankard – ThirstDrinking Man’s Band.mp4
Format : MPEG-4
Format profile : Base Media / Version 2
Codec ID : mp42
File size : 904 MiB
Duration : 34mn 56s
Overall bit rate mode : Variable
Overall bit rate : 3 619 Kbps
Encoded date : UTC 2017-03-09 19:09:20
Tagged date : UTC 2017-03-09 20:12:20
Writing application : HandBrake 0.9.9 2013052900

Video
ID : 1
Format : AVC
Format/Info : Advanced Video Codec
Format profile : Main@L4
Format settings, CABAC : Yes
Format settings, ReFrames : 4 frames
Codec ID : avc1
Codec ID/Info : Advanced Video Coding
Duration : 34mn 56s
Bit rate : 3 455 Kbps
Width : 720 pixels
Height : 586 pixels
Display aspect ratio : 16:9
Original display aspect ratio : 16:9
Frame rate mode : Constant
Frame rate : 25.000 fps
Color space : YUV
Chroma subsampling : 4:2:0
Bit depth : 8 bits
Scan type : Progressive
Bits/(Pixel*Frame) : 0.328
Stream size : 863 MiB (95%)
Writing library : x264 core 130 r2273 b3065e6
Encoding settings : cabac=1 / ref=1 / deblock=1:0:0 / analyse=0x1:0x111 / me=hex / subme=2 / psy=1 / psy_rd=1.00:0.00 / mixed_ref=0 / me_range=16 / chroma_me=1 / trellis=0 / 8x8dct=0 / cqm=0 / deadzone=21,11 / fast_pskip=1 / chroma_qp_offset=0 / threads=1 / lookahead_threads=1 / sliced_threads=0 / nr=0 / decimate=1 / interlaced=0 / bluray_compat=0 / constrained_intra=0 / bframes=3 / b_pyramid=2 / b_adapt=1 / b_bias=0 / direct=1 / weightb=1 / open_gop=0 / weightp=1 / keyint=250 / keyint_min=25 / scenecut=40 / intra_refresh=0 / rc_lookahead=10 / rc=crf / mbtree=1 / crf=20.0 / qcomp=0.60 / qpmin=0 / qpmax=69 / qpstep=4 / vbv_maxrate=20000 / vbv_bufsize=25000 / crf_max=0.0 / nal_hrd=none / ip_ratio=1.40 / aq=1:1.00
Encoded date : UTC 2017-03-09 19:09:20
Tagged date : UTC 2017-03-09 20:12:20
Color range : Limited
Color primaries : BT.601 PAL
Transfer characteristics : BT.709
Matrix coefficients : BT.601

Audio
ID : 2
Format : AAC
Format/Info : Advanced Audio Codec
Format profile : LC
Codec ID : 40
Duration : 34mn 56s
Bit rate mode : Variable
Bit rate : 160 Kbps
Maximum bit rate : 190 Kbps
Channel(s) : 2 channels
Channel positions : Front: L R
Sampling rate : 48.0 KHz
Compression mode : Lossy
Stream size : 40.0 MiB (4%)
Title : Stereo
Encoded date : UTC 2017-03-09 19:09:20
Tagged date : UTC 2017-03-09 20:12:20

Menu
ID : 3
Codec ID : text
Duration : 34mn 56s
Encoded date : UTC 2017-03-09 19:09:20
Tagged date : UTC 2017-03-09 20:12:20
00:00:00.000 : Chapter 1
00:01:00.080 : Chapter 2
00:03:56.720 : Chapter 3
00:06:09.200 : Chapter 4
00:07:27.440 : Chapter 5
00:09:01.520 : Chapter 6
00:10:30.800 : Chapter 7
00:11:26.960 : Chapter 8
00:12:13.040 : Chapter 9
00:12:47.600 : Chapter 10
00:14:12.560 : Chapter 11
00:16:14.960 : Chapter 12
00:18:05.360 : Chapter 13
00:19:45.200 : Chapter 14
00:22:02.000 : Chapter 15
00:22:43.760 : Chapter 16
00:25:55.280 : Chapter 17
00:27:53.840 : Chapter 18
00:29:48.080 : Chapter 19
00:30:38.000 : Chapter 20
00:31:04.880 : Chapter 21
00:33:45.680 : Chapter 22
Bit rate mode : VBR

MediaInfo (MUSIC VIDEO) (LOG)
General
Complete name : E:FLACAAA 2017VidsTankard – ThirstTankard – Stay Thirsty.mp4
Format : MPEG-4
Format profile : Base Media / Version 2
Codec ID : mp42
File size : 69.5 MiB
Duration : 3mn 48s
Overall bit rate mode : Variable
Overall bit rate : 2 549 Kbps
Encoded date : UTC 2017-03-09 19:03:10
Tagged date : UTC 2017-03-09 19:09:19
Writing application : HandBrake 0.9.9 2013052900

Video
ID : 1
Format : AVC
Format/Info : Advanced Video Codec
Format profile : Main@L4
Format settings, CABAC : Yes
Format settings, ReFrames : 4 frames
Codec ID : avc1
Codec ID/Info : Advanced Video Coding
Duration : 3mn 48s
Bit rate : 2 385 Kbps
Width : 720 pixels
Height : 588 pixels
Display aspect ratio : 1.739
Original display aspect ratio : 1.738
Frame rate mode : Constant
Frame rate : 25.000 fps
Color space : YUV
Chroma subsampling : 4:2:0
Bit depth : 8 bits
Scan type : Progressive
Bits/(Pixel*Frame) : 0.225
Stream size : 65.0 MiB (94%)
Writing library : x264 core 130 r2273 b3065e6
Encoding settings : cabac=1 / ref=1 / deblock=1:0:0 / analyse=0x1:0x111 / me=hex / subme=2 / psy=1 / psy_rd=1.00:0.00 / mixed_ref=0 / me_range=16 / chroma_me=1 / trellis=0 / 8x8dct=0 / cqm=0 / deadzone=21,11 / fast_pskip=1 / chroma_qp_offset=0 / threads=1 / lookahead_threads=1 / sliced_threads=0 / nr=0 / decimate=1 / interlaced=0 / bluray_compat=0 / constrained_intra=0 / bframes=3 / b_pyramid=2 / b_adapt=1 / b_bias=0 / direct=1 / weightb=1 / open_gop=0 / weightp=1 / keyint=250 / keyint_min=25 / scenecut=40 / intra_refresh=0 / rc_lookahead=10 / rc=crf / mbtree=1 / crf=20.0 / qcomp=0.60 / qpmin=0 / qpmax=69 / qpstep=4 / vbv_maxrate=20000 / vbv_bufsize=25000 / crf_max=0.0 / nal_hrd=none / ip_ratio=1.40 / aq=1:1.00
Encoded date : UTC 2017-03-09 19:03:10
Tagged date : UTC 2017-03-09 19:09:19
Color range : Limited
Color primaries : BT.601 PAL
Transfer characteristics : BT.709
Matrix coefficients : BT.601

Audio
ID : 2
Format : AAC
Format/Info : Advanced Audio Codec
Format profile : LC
Codec ID : 40
Duration : 3mn 48s
Bit rate mode : Variable
Bit rate : 160 Kbps
Maximum bit rate : 268 Kbps
Channel(s) : 2 channels
Channel positions : Front: L R
Sampling rate : 48.0 KHz
Compression mode : Lossy
Stream size : 4.36 MiB (6%)
Title : Stereo
Encoded date : UTC 2017-03-09 19:03:10
Tagged date : UTC 2017-03-09 19:09:19

Tankard – Thirst (DVD) (2008) Download, Warez, DDL, Free, Full Album, Torrent, Legal.

Download