T‐Bone Walker – The Complete Imperial Recordings: 1950-1954 (1991)

Download
T‐Bone Walker - The Complete Imperial Recordings: 1950-1954 (1991)

T‐Bone Walker – The Complete Imperial Recordings: 1950-1954 (1991)
EAC Rip | FLAC (tracks+log+.cue) | 02:19:01 | 556 Mb
Blues | Label: EMI Records

A founding father of electric blues in general and Texas blues in particular, guitarist T-Bone Walker influenced countless blues players and, by extension, countless rock & rollers as well. The Complete Imperial Recordings date from the early to mid-1950s, when the idea of electric blues was really taking hold, and the two-disc set is a wealth of classic songs exquisitely performed. While definitely blues, there’s more difference between this and the acoustic blues that predated Walker than amplification can account for; there’s jazz and swing mixed in as well, as on tracks like "I Walked Away" and "Strollin’ with Bone," and something of that feel has remained in electric blues ever since. From B.B. King to Buddy Guy to Stevie Ray Vaughan and beyond, Walker’s influence is felt in the blues up through the present day.

Another essential T-Bone Walker collection, Complete Imperial Recordings: 1950-1954 is a two-disc dish with 52 sensational tracks from his stint at Lew Chudd’s Imperial Records label. Whether waxing with his own jump blues unit in L.A. or Dave Bartholomew’s hard-drivers in New Orleans, Walker always stayed true to his vision, and the proof was in the grooves: "Glamour Girl," "The Hustle Is On," "Tell Me What’s the Reason," "High Society," "Cold, Cold Feeling," and the immaculate jumping instrumental "Strollin’ with Bones" all date from this historic period of Walker’s legacy.

Tracklist:
CD1
01] T-Bone Walker – Glamour Girl [2:45]
02] T-Bone Walker – Strollin’ With Bone [2:30]
03] T-Bone Walker – The Sun Went Down [2:20]
04] T-Bone Walker – You Don’t Love Me [2:55]
05] T-Bone Walker – Travelin’ Blues [2:21]
06] T-Bone Walker – The Hustle Is On (78 rpm version) [2:34]
07] T-Bone Walker – Baby Broke My Heart (78 rpm version) [2:44]
08] T-Bone Walker – Evil Hearted Woman (alt. take) [2:37]
09] T-Bone Walker – I Walked Away [2:18]
10] T-Bone Walker – No Reason [2:31]
11] T-Bone Walker – Look Me In The Eye [2:27]
12] T-Bone Walker – Too Lazy (alt. take) [3:28]
13] T-Bone Walker – Alimony Blues [2:41]
14] T-Bone Walker – Life Is Too Short [2:45]
15] T-Bone Walker – You Don’t Understand [2:39]
16] T-Bone Walker – Welcome Blues (Say Pretty Baby) [2:26]
17] T-Bone Walker – I Get So Weary [2:43]
18] T-Bone Walker – You Just Wanted To Use Me [2:25]
19] T-Bone Walker – Tell Me What’s The Reason [2:39]
20] T-Bone Walker – I’m About To Lose My Mind [2:23]
21] T-Bone Walker – Cold, Cold Feeling [3:11]
22] T-Bone Walker – News For My Baby [2:21]
23] T-Bone Walker – Get These Blues Off Me 3:04]
24] T-Bone Walker – I Got The Blues Again [3:16]
25] T-Bone Walker – Through With Women [3:09]
26] T-Bone Walker – Street Walking Woman [3:04]

CD2
01] T-Bone Walker – Blues Is A Woman [2:48]
02] T-Bone Walker – I Got The Blues [2:55]
03] T-Bone Walker – Here In The Dark [3:02]
04] T-Bone Walker – Blue Mood [2:51]
05] T-Bone Walker – Every Time [2:29]
06] T-Bone Walker – I Miss You Baby [2:54]
07] T-Bone Walker – Lollie Lou [2:56]
08] T-Bone Walker – Party Girl [2:10]
09] T-Bone Walker – Love Is Just A Gamble [2:54]
10] T-Bone Walker – High Society [2:55]
11] T-Bone Walker – Long Distance Blues [3:03]
12] T-Bone Walker – Got No Use For You [2:40]
13] T-Bone Walker – I’m Still In Love With You [3:07]
14] T-Bone Walker – Railroad Station Blues [2:41]
15] T-Bone Walker – Vida Lee [2:25]
16] T-Bone Walker – My Baby Is Now On My Mind [2:38]
17] T-Bone Walker – Doin’ Time [3:02]
18] T-Bone Walker – Bye Bye Baby [2:46]
19] T-Bone Walker – When The Sun Goes Down [2:31]
20] T-Bone Walker – Pony Tail [2:23]
21] T-Bone Walker – Wanderin’ Heart [2:31]
22] T-Bone Walker – I’ll Always Be In Love With You [2:17]
23] T-Bone Walker – I’ll Understand [2:06]
24] T-Bone Walker – Hard Way [2:08]
25] T-Bone Walker – Teen Age Baby [2:04]
26] T-Bone Walker – Strugglin’ Blues [2:31]

EAC CD1
Exact Audio Copy V1.1 from 23. June 2015

EAC extraction logfile from 13. August 2016, 18:40

T-Bone Walker / The Complete Imperial Recordings, 1950-1954

Used drive : TSSTcorpCDDVDW SU-208DB Adapter: 1 ID: 0

Read mode : Secure
Utilize accurate stream : Yes
Defeat audio cache : Yes
Make use of C2 pointers : No

Read offset correction : 48
Overread into Lead-In and Lead-Out : No
Fill up missing offset samples with silence : Yes
Delete leading and trailing silent blocks : No
Null samples used in CRC calculations : Yes
Used interface : Native Win32 interface for Win NT & 2000
Gap handling : Appended to previous track

Used output format : User Defined Encoder
Selected bitrate : 128 kBit/s
Quality : High
Add ID3 tag : No
Command line compressor : C:Program Files (x86)Exact Audio CopyFlacflac.exe
Additional command line options : -8 -V -T "ARTIST=%artist%" -T "TITLE=%title%" -T "ALBUM=%albumtitle%" -T "DATE=%year%" -T "TRACKNUMBER=%tracknr%" -T "GENRE=%genre%" -T "PERFORMER=%albuminterpret%" -T "COMPOSER=%composer%" %haslyrics%–tag-from-file=LYRICS="%lyricsfile%"%haslyrics% -T "ALBUMARTIST=%albumartist%" -T "DISCNUMBER=%cdnumber%" -T "TOTALDISCS=%totalcds%" -T "TOTALTRACKS=%numtracks%" -T "COMMENT=%comment%" %source% -o %dest%

TOC of the extracted CD

Track | Start | Length | Start sector | End sector
––––––––––––––––––––––––––––-
1 | 0:00.32 | 2:44.55 | 32 | 12386
2 | 2:45.12 | 2:30.13 | 12387 | 23649
3 | 5:15.25 | 2:20.12 | 23650 | 34161
4 | 7:35.37 | 2:55.00 | 34162 | 47286
5 | 10:30.37 | 2:21.10 | 47287 | 57871
6 | 12:51.47 | 2:33.63 | 57872 | 69409
7 | 15:25.35 | 2:43.67 | 69410 | 81701
8 | 18:09.27 | 2:36.70 | 81702 | 93471
9 | 20:46.22 | 2:17.53 | 93472 | 103799
10 | 23:04.00 | 2:31.15 | 103800 | 115139
11 | 25:35.15 | 2:27.17 | 115140 | 126181
12 | 28:02.32 | 3:27.43 | 126182 | 141749
13 | 31:30.00 | 2:40.60 | 141750 | 153809
14 | 34:10.60 | 2:44.70 | 153810 | 166179
15 | 36:55.55 | 2:39.15 | 166180 | 178119
16 | 39:34.70 | 2:25.60 | 178120 | 189054
17 | 42:00.55 | 2:42.70 | 189055 | 201274
18 | 44:43.50 | 2:24.40 | 201275 | 212114
19 | 47:08.15 | 2:39.35 | 212115 | 224074
20 | 49:47.50 | 2:23.05 | 224075 | 234804
21 | 52:10.55 | 3:11.15 | 234805 | 249144
22 | 55:21.70 | 2:20.70 | 249145 | 259714
23 | 57:42.65 | 3:04.20 | 259715 | 273534
24 | 60:47.10 | 3:16.05 | 273535 | 288239
25 | 64:03.15 | 3:09.15 | 288240 | 302429
26 | 67:12.30 | 3:03.55 | 302430 | 316209

Track 1

Filename C:EAC RipsT-Bone Walker – The Complete Imperial Recordings, 1950-1954 (1991) [FLAC]Disc 11. Glamour Girl.wav

Pre-gap length 0:00:02.32

Peak level 89.4 %
Extraction speed 2.7 X
Track quality 100.0 %
Test CRC A1A34356
Copy CRC A1A34356
Accurately ripped (confidence 24) [3A9977BE] (AR v2)
Copy OK

Track 2

Filename C:EAC RipsT-Bone Walker – The Complete Imperial Recordings, 1950-1954 (1991) [FLAC]Disc 12. Strollin’ with Bone.wav

Pre-gap length 0:00:02.20

Peak level 88.7 %
Extraction speed 2.8 X
Track quality 100.0 %
Test CRC 15BF1759
Copy CRC 15BF1759
Accurately ripped (confidence 24) [AB235480] (AR v2)
Copy OK

Track 3

Filename C:EAC RipsT-Bone Walker – The Complete Imperial Recordings, 1950-1954 (1991) [FLAC]Disc 13. The Sun Went Down.wav

Pre-gap length 0:00:02.30

Peak level 89.2 %
Extraction speed 2.9 X
Track quality 100.0 %
Test CRC E87251BA
Copy CRC E87251BA
Accurately ripped (confidence 24) [90A6DF17] (AR v2)
Copy OK

Track 4

Filename C:EAC RipsT-Bone Walker – The Complete Imperial Recordings, 1950-1954 (1991) [FLAC]Disc 14. You Don’t Love Me.wav

Pre-gap length 0:00:01.57

Peak level 86.7 %
Extraction speed 3.2 X
Track quality 100.0 %
Test CRC 39BA74ED
Copy CRC 39BA74ED
Accurately ripped (confidence 24) [5B39205A] (AR v2)
Copy OK

Track 5

Filename C:EAC RipsT-Bone Walker – The Complete Imperial Recordings, 1950-1954 (1991) [FLAC]Disc 15. Travelin’ Blues.wav

Pre-gap length 0:00:00.67

Peak level 44.4 %
Extraction speed 3.2 X
Track quality 100.0 %
Test CRC 3DE507CA
Copy CRC 3DE507CA
Accurately ripped (confidence 24) [1D4F54EF] (AR v2)
Copy OK

Track 6

Filename C:EAC RipsT-Bone Walker – The Complete Imperial Recordings, 1950-1954 (1991) [FLAC]Disc 16. The Hustle Is On (78rpm version).wav

Pre-gap length 0:00:01.30

Peak level 80.8 %
Extraction speed 3.4 X
Track quality 100.0 %
Test CRC C007C2D4
Copy CRC C007C2D4
Accurately ripped (confidence 24) [E3C6A6A8] (AR v2)
Copy OK

Track 7

Filename C:EAC RipsT-Bone Walker – The Complete Imperial Recordings, 1950-1954 (1991) [FLAC]Disc 17. Baby Broke My Heart (78rpm version).wav

Pre-gap length 0:00:02.00

Peak level 88.8 %
Extraction speed 3.6 X
Track quality 100.0 %
Test CRC EAACE969
Copy CRC EAACE969
Accurately ripped (confidence 24) [EA78CD51] (AR v2)
Copy OK

Track 8

Filename C:EAC RipsT-Bone Walker – The Complete Imperial Recordings, 1950-1954 (1991) [FLAC]Disc 18. Evil Hearted Woman (alt. take).wav

Pre-gap length 0:00:01.37

Peak level 82.7 %
Extraction speed 3.6 X
Track quality 100.0 %
Test CRC 0AD3E697
Copy CRC 0AD3E697
Accurately ripped (confidence 24) [489BCE4B] (AR v2)
Copy OK

Track 9

Filename C:EAC RipsT-Bone Walker – The Complete Imperial Recordings, 1950-1954 (1991) [FLAC]Disc 19. I Walked Away.wav

Pre-gap length 0:00:01.52

Peak level 89.4 %
Extraction speed 3.7 X
Track quality 100.0 %
Test CRC E6FEA526
Copy CRC E6FEA526
Accurately ripped (confidence 24) [ABD8FD84] (AR v2)
Copy OK

Track 10

Filename C:EAC RipsT-Bone Walker – The Complete Imperial Recordings, 1950-1954 (1991) [FLAC]Disc 110. No Reason.wav

Pre-gap length 0:00:01.43

Peak level 78.1 %
Extraction speed 4.0 X
Track quality 100.0 %
Test CRC FBDD271F
Copy CRC FBDD271F
Accurately ripped (confidence 24) [B5F65100] (AR v2)
Copy OK

Track 11

Filename C:EAC RipsT-Bone Walker – The Complete Imperial Recordings, 1950-1954 (1991) [FLAC]Disc 111. Look Me in the Eye (78rpm version).wav

Pre-gap length 0:00:02.03

Peak level 70.5 %
Extraction speed 4.0 X
Track quality 100.0 %
Test CRC 67EFCC32
Copy CRC 67EFCC32
Accurately ripped (confidence 24) [E640AC28] (AR v2)
Copy OK

Track 12

Filename C:EAC RipsT-Bone Walker – The Complete Imperial Recordings, 1950-1954 (1991) [FLAC]Disc 112. Too Lazy (alt. take).wav

Pre-gap length 0:00:01.45

Peak level 89.1 %
Extraction speed 4.4 X
Track quality 100.0 %
Test CRC 9267B5B3
Copy CRC 9267B5B3
Accurately ripped (confidence 24) [4414D314] (AR v2)
Copy OK

Track 13

Filename C:EAC RipsT-Bone Walker – The Complete Imperial Recordings, 1950-1954 (1991) [FLAC]Disc 113. Alimony Blues.wav

Pre-gap length 0:00:01.40

Peak level 82.7 %
Extraction speed 4.3 X
Track quality 100.0 %
Test CRC 0C302B9D
Copy CRC 0C302B9D
Accurately ripped (confidence 24) [C8AEFDF2] (AR v2)
Copy OK

Track 14

Filename C:EAC RipsT-Bone Walker – The Complete Imperial Recordings, 1950-1954 (1991) [FLAC]Disc 114. Life Is Too Short.wav

Pre-gap length 0:00:01.48

Peak level 93.9 %
Extraction speed 4.5 X
Track quality 100.0 %
Test CRC 962C2819
Copy CRC 962C2819
Accurately ripped (confidence 24) [24FBDEF5] (AR v2)
Copy OK

Track 15

Filename C:EAC RipsT-Bone Walker – The Complete Imperial Recordings, 1950-1954 (1991) [FLAC]Disc 115. You Don’t Understand.wav

Pre-gap length 0:00:01.53

Peak level 91.0 %
Extraction speed 4.6 X
Track quality 100.0 %
Test CRC 43300234
Copy CRC 43300234
Accurately ripped (confidence 24) [08C8D3E4] (AR v2)
Copy OK

Track 16

Filename C:EAC RipsT-Bone Walker – The Complete Imperial Recordings, 1950-1954 (1991) [FLAC]Disc 116. Welcome Blues (Say Pretty Baby).wav

Pre-gap length 0:00:01.38

Peak level 88.7 %
Extraction speed 4.7 X
Track quality 100.0 %
Test CRC 3A5B263B
Copy CRC 3A5B263B
Accurately ripped (confidence 24) [09EB3B42] (AR v2)
Copy OK

Track 17

Filename C:EAC RipsT-Bone Walker – The Complete Imperial Recordings, 1950-1954 (1991) [FLAC]Disc 117. I Get So Weary.wav

Pre-gap length 0:00:01.70

Peak level 88.6 %
Extraction speed 4.8 X
Track quality 100.0 %
Test CRC F2BED272
Copy CRC F2BED272
Accurately ripped (confidence 24) [64702A11] (AR v2)
Copy OK

Track 18

Filename C:EAC RipsT-Bone Walker – The Complete Imperial Recordings, 1950-1954 (1991) [FLAC]Disc 118. You Just Wanted to Use Me.wav

Pre-gap length 0:00:01.70

Peak level 77.1 %
Extraction speed 4.9 X
Track quality 100.0 %
Test CRC C9D42135
Copy CRC C9D42135
Accurately ripped (confidence 24) [EAF75EE0] (AR v2)
Copy OK

Track 19

Filename C:EAC RipsT-Bone Walker – The Complete Imperial Recordings, 1950-1954 (1991) [FLAC]Disc 119. Tell Me What’s the Reason.wav

Pre-gap length 0:00:01.43

Peak level 90.1 %
Extraction speed 5.0 X
Track quality 100.0 %
Test CRC 0D875FE5
Copy CRC 0D875FE5
Accurately ripped (confidence 24) [1E973099] (AR v2)
Copy OK

Track 20

Filename C:EAC RipsT-Bone Walker – The Complete Imperial Recordings, 1950-1954 (1991) [FLAC]Disc 120. I’m About to Lose My Mind.wav

Pre-gap length 0:00:01.43

Peak level 86.8 %
Extraction speed 3.7 X
Track quality 99.9 %
Test CRC F7B26071
Copy CRC F7B26071
Accurately ripped (confidence 24) [696142E4] (AR v2)
Copy OK

Track 21

Filename C:EAC RipsT-Bone Walker – The Complete Imperial Recordings, 1950-1954 (1991) [FLAC]Disc 121. Cold, Cold Feeling.wav

Pre-gap length 0:00:01.43

Peak level 83.1 %
Extraction speed 4.2 X
Track quality 99.9 %
Test CRC 6F75784F
Copy CRC 6F75784F
Accurately ripped (confidence 24) [EAD6E2D1] (AR v2)
Copy OK

Track 22

Filename C:EAC RipsT-Bone Walker – The Complete Imperial Recordings, 1950-1954 (1991) [FLAC]Disc 122. News for My Baby.wav

Pre-gap length 0:00:01.28

Peak level 76.4 %
Extraction speed 5.2 X
Track quality 100.0 %
Test CRC C48AE2A4
Copy CRC C48AE2A4
Accurately ripped (confidence 24) [077DA724] (AR v2)
Copy OK

Track 23

Filename C:EAC RipsT-Bone Walker – The Complete Imperial Recordings, 1950-1954 (1991) [FLAC]Disc 123. Get These Blues Off Me.wav

Pre-gap length 0:00:01.38

Peak level 70.4 %
Extraction speed 4.0 X
Track quality 99.9 %
Test CRC 874204AE
Copy CRC 874204AE
Accurately ripped (confidence 24) [93227DB9] (AR v2)
Copy OK

Track 24

Filename C:EAC RipsT-Bone Walker – The Complete Imperial Recordings, 1950-1954 (1991) [FLAC]Disc 124. I Got the Blues Again.wav

Pre-gap length 0:00:01.63

Peak level 84.8 %
Extraction speed 4.8 X
Track quality 100.0 %
Test CRC 641AF38B
Copy CRC 641AF38B
Accurately ripped (confidence 24) [B778587D] (AR v2)
Copy OK

Track 25

Filename C:EAC RipsT-Bone Walker – The Complete Imperial Recordings, 1950-1954 (1991) [FLAC]Disc 125. Through with Women.wav

Pre-gap length 0:00:01.48

Peak level 87.1 %
Extraction speed 4.2 X
Track quality 99.9 %
Test CRC BB3AD9D9
Copy CRC BB3AD9D9
Accurately ripped (confidence 24) [9BE38D52] (AR v2)
Copy OK

Track 26

Filename C:EAC RipsT-Bone Walker – The Complete Imperial Recordings, 1950-1954 (1991) [FLAC]Disc 126. Street Walking Woman.wav

Pre-gap length 0:00:01.26

Peak level 92.4 %
Extraction speed 5.0 X
Track quality 100.0 %
Test CRC 9A57001B
Copy CRC 9A57001B
Accurately ripped (confidence 22) [F306AE60] (AR v2)
Copy OK

All tracks accurately ripped

No errors occurred

End of status report

–– CUETools DB Plugin V2.1.6

[CTDB TOCID: HmB_lIR4foQZhwcg.XvT3rgUqk8-] found
Submit result: HmB_lIR4foQZhwcg.XvT3rgUqk8- has been confirmed
Track | CTDB Status
1 | (25/26) Accurately ripped
2 | (25/26) Accurately ripped
3 | (25/26) Accurately ripped
4 | (25/26) Accurately ripped
5 | (25/26) Accurately ripped
6 | (24/26) Accurately ripped
7 | (25/26) Accurately ripped
8 | (25/26) Accurately ripped
9 | (25/26) Accurately ripped
10 | (25/26) Accurately ripped
11 | (25/26) Accurately ripped
12 | (25/26) Accurately ripped
13 | (25/26) Accurately ripped
14 | (25/26) Accurately ripped
15 | (25/26) Accurately ripped
16 | (25/26) Accurately ripped
17 | (25/26) Accurately ripped
18 | (25/26) Accurately ripped
19 | (25/26) Accurately ripped
20 | (25/26) Accurately ripped
21 | (25/26) Accurately ripped
22 | (25/26) Accurately ripped
23 | (25/26) Accurately ripped
24 | (25/26) Accurately ripped
25 | (25/26) Accurately ripped
26 | (26/26) Accurately ripped

==== Log checksum CB238328E14890CEAA390B2E86D53B6EEE69B46D734BB8C9929684540EA86177 ====

EAC CD2
Exact Audio Copy V1.1 from 23. June 2015

EAC extraction logfile from 13. August 2016, 19:19

T-Bone Walker / The Complete Imperial Recordings, 1950-1954

Used drive : TSSTcorpCDDVDW SU-208DB Adapter: 1 ID: 0

Read mode : Secure
Utilize accurate stream : Yes
Defeat audio cache : Yes
Make use of C2 pointers : No

Read offset correction : 48
Overread into Lead-In and Lead-Out : No
Fill up missing offset samples with silence : Yes
Delete leading and trailing silent blocks : No
Null samples used in CRC calculations : Yes
Used interface : Native Win32 interface for Win NT & 2000
Gap handling : Appended to previous track

Used output format : User Defined Encoder
Selected bitrate : 128 kBit/s
Quality : High
Add ID3 tag : No
Command line compressor : C:Program Files (x86)Exact Audio CopyFlacflac.exe
Additional command line options : -8 -V -T "ARTIST=%artist%" -T "TITLE=%title%" -T "ALBUM=%albumtitle%" -T "DATE=%year%" -T "TRACKNUMBER=%tracknr%" -T "GENRE=%genre%" -T "PERFORMER=%albuminterpret%" -T "COMPOSER=%composer%" %haslyrics%–tag-from-file=LYRICS="%lyricsfile%"%haslyrics% -T "ALBUMARTIST=%albumartist%" -T "DISCNUMBER=%cdnumber%" -T "TOTALDISCS=%totalcds%" -T "TOTALTRACKS=%numtracks%" -T "COMMENT=%comment%" %source% -o %dest%

TOC of the extracted CD

Track | Start | Length | Start sector | End sector
––––––––––––––––––––––––––––-
1 | 0:00.32 | 2:48.05 | 32 | 12636
2 | 2:48.37 | 2:55.30 | 12637 | 25791
3 | 5:43.67 | 3:01.50 | 25792 | 39416
4 | 8:45.42 | 2:51.33 | 39417 | 52274
5 | 11:37.00 | 2:28.62 | 52275 | 63436
6 | 14:05.62 | 2:53.53 | 63437 | 76464
7 | 16:59.40 | 2:56.05 | 76465 | 89669
8 | 19:55.45 | 2:09.45 | 89670 | 99389
9 | 22:05.15 | 2:54.10 | 99390 | 112449
10 | 24:59.25 | 2:55.22 | 112450 | 125596
11 | 27:54.47 | 3:02.53 | 125597 | 139299
12 | 30:57.25 | 2:40.02 | 139300 | 151301
13 | 33:37.27 | 3:06.50 | 151302 | 165301
14 | 36:44.02 | 2:41.03 | 165302 | 177379
15 | 39:25.05 | 2:24.62 | 177380 | 188241
16 | 41:49.67 | 2:37.40 | 188242 | 200056
17 | 44:27.32 | 3:01.73 | 200057 | 213704
18 | 47:29.30 | 2:46.15 | 213705 | 226169
19 | 50:15.45 | 2:30.67 | 226170 | 237486
20 | 52:46.37 | 2:22.43 | 237487 | 248179
21 | 55:09.05 | 2:31.02 | 248180 | 259506
22 | 57:40.07 | 2:16.48 | 259507 | 269754
23 | 59:56.55 | 2:06.35 | 269755 | 279239
24 | 62:03.15 | 2:07.55 | 279240 | 288819
25 | 64:10.70 | 2:04.20 | 288820 | 298139
26 | 66:15.15 | 2:31.37 | 298140 | 309501

Track 1

Filename C:EAC RipsT-Bone Walker – The Complete Imperial Recordings, 1950-1954 (1991) [FLAC]Disc 21. Blues Is a Woman.wav

Pre-gap length 0:00:02.32

Peak level 86.0 %
Extraction speed 2.6 X
Track quality 100.0 %
Test CRC 91E7B40D
Copy CRC 91E7B40D
Accurately ripped (confidence 11) [6DB60301] (AR v2)
Copy OK

Track 2

Filename C:EAC RipsT-Bone Walker – The Complete Imperial Recordings, 1950-1954 (1991) [FLAC]Disc 22. I Got the Blues.wav

Pre-gap length 0:00:01.35

Peak level 90.0 %
Extraction speed 2.8 X
Track quality 100.0 %
Test CRC E9F4602C
Copy CRC E9F4602C
Accurately ripped (confidence 13) [FAA5B677] (AR v2)
Copy OK

Track 3

Filename C:EAC RipsT-Bone Walker – The Complete Imperial Recordings, 1950-1954 (1991) [FLAC]Disc 23. Here in the Dark.wav

Pre-gap length 0:00:01.35

Peak level 89.8 %
Extraction speed 3.1 X
Track quality 100.0 %
Test CRC 5C39EACB
Copy CRC 5C39EACB
Accurately ripped (confidence 13) [8F587611] (AR v2)
Copy OK

Track 4

Filename C:EAC RipsT-Bone Walker – The Complete Imperial Recordings, 1950-1954 (1991) [FLAC]Disc 24. Blue Mood.wav

Pre-gap length 0:00:00.50

Peak level 88.8 %
Extraction speed 3.2 X
Track quality 100.0 %
Test CRC 47CA34E9
Copy CRC 47CA34E9
Accurately ripped (confidence 13) [300F6A03] (AR v2)
Copy OK

Track 5

Filename C:EAC RipsT-Bone Walker – The Complete Imperial Recordings, 1950-1954 (1991) [FLAC]Disc 25. Every Time.wav

Pre-gap length 0:00:00.73

Peak level 87.4 %
Extraction speed 3.3 X
Track quality 100.0 %
Test CRC 6A4B65D0
Copy CRC 6A4B65D0
Accurately ripped (confidence 13) [394011AE] (AR v2)
Copy OK

Track 6

Filename C:EAC RipsT-Bone Walker – The Complete Imperial Recordings, 1950-1954 (1991) [FLAC]Disc 26. I Miss You Baby.wav

Pre-gap length 0:00:01.27

Peak level 88.0 %
Extraction speed 3.5 X
Track quality 100.0 %
Test CRC 17105E5A
Copy CRC 17105E5A
Accurately ripped (confidence 13) [18D29580] (AR v2)
Copy OK

Track 7

Filename C:EAC RipsT-Bone Walker – The Complete Imperial Recordings, 1950-1954 (1991) [FLAC]Disc 27. Lollie Lou.wav

Pre-gap length 0:00:01.08

Peak level 62.0 %
Extraction speed 3.7 X
Track quality 100.0 %
Test CRC A5496073
Copy CRC A5496073
Accurately ripped (confidence 13) [81E62290] (AR v2)
Copy OK

Track 8

Filename C:EAC RipsT-Bone Walker – The Complete Imperial Recordings, 1950-1954 (1991) [FLAC]Disc 28. Party Girl.wav

Pre-gap length 0:00:01.28

Peak level 72.2 %
Extraction speed 3.6 X
Track quality 100.0 %
Test CRC A11B3ACB
Copy CRC A11B3ACB
Accurately ripped (confidence 13) [BD883ED3] (AR v2)
Copy OK

Track 9

Filename C:EAC RipsT-Bone Walker – The Complete Imperial Recordings, 1950-1954 (1991) [FLAC]Disc 29. Love Is Just a Gamble.wav

Pre-gap length 0:00:01.25

Peak level 77.1 %
Extraction speed 3.9 X
Track quality 100.0 %
Test CRC 68809F0E
Copy CRC 68809F0E
Accurately ripped (confidence 13) [6ACB59DE] (AR v2)
Copy OK

Track 10

Filename C:EAC RipsT-Bone Walker – The Complete Imperial Recordings, 1950-1954 (1991) [FLAC]Disc 210. High Society.wav

Pre-gap length 0:00:00.68

Peak level 93.6 %
Extraction speed 3.1 X
Track quality 99.9 %
Test CRC E98052B1
Copy CRC E98052B1
Accurately ripped (confidence 13) [C8CD1078] (AR v2)
Copy OK

Track 11

Filename C:EAC RipsT-Bone Walker – The Complete Imperial Recordings, 1950-1954 (1991) [FLAC]Disc 211. Long Distance Blues.wav

Pre-gap length 0:00:01.15

Peak level 73.8 %
Extraction speed 4.2 X
Track quality 100.0 %
Test CRC 4B4CC6AA
Copy CRC 4B4CC6AA
Accurately ripped (confidence 13) [D1A46A65] (AR v2)
Copy OK

Track 12

Filename C:EAC RipsT-Bone Walker – The Complete Imperial Recordings, 1950-1954 (1991) [FLAC]Disc 212. Got No Use for You.wav

Pre-gap length 0:00:01.15

Peak level 69.9 %
Extraction speed 3.2 X
Track quality 99.9 %
Test CRC FAAA0D92
Copy CRC FAAA0D92
Accurately ripped (confidence 13) [DFA8029D] (AR v2)
Copy OK

Track 13

Filename C:EAC RipsT-Bone Walker – The Complete Imperial Recordings, 1950-1954 (1991) [FLAC]Disc 213. I’m Still in Love with You.wav

Pre-gap length 0:00:00.40

Peak level 89.3 %
Extraction speed 4.5 X
Track quality 100.0 %
Test CRC 1F1E77BB
Copy CRC 1F1E77BB
Accurately ripped (confidence 13) [BD692D28] (AR v2)
Copy OK

Track 14

Filename C:EAC RipsT-Bone Walker – The Complete Imperial Recordings, 1950-1954 (1991) [FLAC]Disc 214. Railroad Station Blues.wav

Pre-gap length 0:00:01.25

Peak level 88.3 %
Extraction speed 4.4 X
Track quality 100.0 %
Test CRC 3232CA9E
Copy CRC 3232CA9E
Accurately ripped (confidence 13) [2FAE8C07] (AR v2)
Copy OK

Track 15

Filename C:EAC RipsT-Bone Walker – The Complete Imperial Recordings, 1950-1954 (1991) [FLAC]Disc 215. Vida Lee.wav

Pre-gap length 0:00:01.68

Peak level 81.4 %
Extraction speed 4.5 X
Track quality 100.0 %
Test CRC C0BA38D4
Copy CRC C0BA38D4
Accurately ripped (confidence 13) [5E6A1508] (AR v2)
Copy OK

Track 16

Filename C:EAC RipsT-Bone Walker – The Complete Imperial Recordings, 1950-1954 (1991) [FLAC]Disc 216. My Baby Is Now on My Mind.wav

Pre-gap length 0:00:00.57

Peak level 89.7 %
Extraction speed 4.7 X
Track quality 100.0 %
Test CRC AFE9887B
Copy CRC AFE9887B
Accurately ripped (confidence 13) [31FCF1A4] (AR v2)
Copy OK

Track 17

Filename C:EAC RipsT-Bone Walker – The Complete Imperial Recordings, 1950-1954 (1991) [FLAC]Disc 217. Doin’ Time.wav

Pre-gap length 0:00:01.25

Peak level 79.0 %
Extraction speed 4.9 X
Track quality 100.0 %
Test CRC 14BA1EA6
Copy CRC 14BA1EA6
Accurately ripped (confidence 13) [5A94A364] (AR v2)
Copy OK

Track 18

Filename C:EAC RipsT-Bone Walker – The Complete Imperial Recordings, 1950-1954 (1991) [FLAC]Disc 218. Bye Bye Baby.wav

Pre-gap length 0:00:01.48

Peak level 81.5 %
Extraction speed 4.9 X
Track quality 100.0 %
Test CRC 1AC98B88
Copy CRC 1AC98B88
Accurately ripped (confidence 12) [41328216] (AR v2)
Copy OK

Track 19

Filename C:EAC RipsT-Bone Walker – The Complete Imperial Recordings, 1950-1954 (1991) [FLAC]Disc 219. When the Sun Goes Down.wav

Pre-gap length 0:00:01.15

Peak level 79.2 %
Extraction speed 5.0 X
Track quality 100.0 %
Test CRC D366BF0B
Copy CRC D366BF0B
Accurately ripped (confidence 13) [9945B1CB] (AR v2)
Copy OK

Track 20

Filename C:EAC RipsT-Bone Walker – The Complete Imperial Recordings, 1950-1954 (1991) [FLAC]Disc 220. Pony Tail.wav

Pre-gap length 0:00:01.10

Peak level 71.6 %
Extraction speed 5.0 X
Track quality 100.0 %
Test CRC 8D76DD73
Copy CRC 8D76DD73
Accurately ripped (confidence 13) [9EDE8E2B] (AR v2)
Copy OK

Track 21

Filename C:EAC RipsT-Bone Walker – The Complete Imperial Recordings, 1950-1954 (1991) [FLAC]Disc 221. Wanderin’ Heart.wav

Pre-gap length 0:00:00.73

Peak level 76.3 %
Extraction speed 3.8 X
Track quality 99.9 %
Test CRC 02497412
Copy CRC 02497412
Accurately ripped (confidence 13) [C4D8324E] (AR v2)
Copy OK

Track 22

Filename C:EAC RipsT-Bone Walker – The Complete Imperial Recordings, 1950-1954 (1991) [FLAC]Disc 222. I’ll Always Be in Love with You.wav

Pre-gap length 0:00:01.10

Peak level 93.5 %
Extraction speed 5.0 X
Track quality 100.0 %
Test CRC C8539B72
Copy CRC C8539B72
Accurately ripped (confidence 13) [F75F46B0] (AR v2)
Copy OK

Track 23

Filename C:EAC RipsT-Bone Walker – The Complete Imperial Recordings, 1950-1954 (1991) [FLAC]Disc 223. I’ll Understand.wav

Pre-gap length 0:00:00.73

Peak level 82.2 %
Extraction speed 3.7 X
Track quality 99.9 %
Test CRC 33248438
Copy CRC 33248438
Accurately ripped (confidence 13) [C91F610A] (AR v2)
Copy OK

Track 24

Filename C:EAC RipsT-Bone Walker – The Complete Imperial Recordings, 1950-1954 (1991) [FLAC]Disc 224. Hard Way.wav

Pre-gap length 0:00:01.18

Peak level 73.3 %
Extraction speed 5.0 X
Track quality 100.0 %
Test CRC 5C8F3690
Copy CRC 5C8F3690
Accurately ripped (confidence 13) [881373A3] (AR v2)
Copy OK

Track 25

Filename C:EAC RipsT-Bone Walker – The Complete Imperial Recordings, 1950-1954 (1991) [FLAC]Disc 225. Teen Age Baby.wav

Pre-gap length 0:00:00.68

Peak level 77.0 %
Extraction speed 5.2 X
Track quality 100.0 %
Test CRC 56E8CBF6
Copy CRC 56E8CBF6
Accurately ripped (confidence 13) [DD852887] (AR v2)
Copy OK

Track 26

Filename C:EAC RipsT-Bone Walker – The Complete Imperial Recordings, 1950-1954 (1991) [FLAC]Disc 226. Strugglin’ Blues.wav

Pre-gap length 0:00:00.40

Peak level 87.6 %
Extraction speed 5.4 X
Track quality 100.0 %
Test CRC B61854A6
Copy CRC B61854A6
Accurately ripped (confidence 13) [02D88FE6] (AR v2)
Copy OK

All tracks accurately ripped

No errors occurred

End of status report

–– CUETools DB Plugin V2.1.6

[CTDB TOCID: NQor9AX9yK3EBTrr7CSUrD2ZnY4-] found
Submit result: NQor9AX9yK3EBTrr7CSUrD2ZnY4- has been confirmed
Track | CTDB Status
1 | (8/9) Accurately ripped
2 | (8/9) Accurately ripped
3 | (8/9) Accurately ripped
4 | (8/9) Accurately ripped
5 | (8/9) Accurately ripped
6 | (8/9) Accurately ripped
7 | (8/9) Accurately ripped
8 | (8/9) Accurately ripped
9 | (8/9) Accurately ripped
10 | (8/9) Accurately ripped
11 | (8/9) Accurately ripped
12 | (8/9) Accurately ripped
13 | (8/9) Accurately ripped
14 | (8/9) Accurately ripped
15 | (8/9) Accurately ripped
16 | (8/9) Accurately ripped
17 | (8/9) Accurately ripped
18 | (8/9) Accurately ripped
19 | (8/9) Accurately ripped
20 | (8/9) Accurately ripped
21 | (8/9) Accurately ripped
22 | (8/9) Accurately ripped
23 | (8/9) Accurately ripped
24 | (8/9) Accurately ripped
25 | (8/9) Accurately ripped
26 | (9/9) Accurately ripped

==== Log checksum 87F8C0C628243C406DE5050068E3D2960AF6336650D589B37FE786F0B14F41EB ====

Thanks to the Original ripper freeplay !

T‐Bone Walker – The Complete Imperial Recordings: 1950-1954 (1991) Download, Warez, DDL, Free, Full Album, Torrent, Legal.

Download