Symphony Orchestra Kremlin – Romeo & Julia (1997)

Download
Symphony Orchestra Kremlin - Romeo & Julia (1997)

Symphony Orchestra Kremlin – Romeo & Julia (1997)
EAC | Flac(Image) + Cue + Log & MP3 CBR 320Kbps
Pope Music Dynamic Fidelity, PMG 2011-2 | ~ 292 or 176 Mb | Scans Included
Classical

~ Recorded June, 1996 in Moscow Conservatory’s Great Hall. ~

Symphony Orchestra Kremlin – Romeo & Julia (1997):

Symphony Orchestra Kremlin - Romeo & Julia (1997)

Tracklist:

Pyotr Ilyich Tchaikovsky (1880)
01. Romeo & Juliet (Fantasy Overture) {Tchaikovsky} [19:31]
Sergei Prokofiev: Romeo & Juliet Suites (1936)
02. Montagues & Capulets, Suite No.2, Op.64c {Prokofiev} [5:14]
03. The Child Juliet, Suite No.2, Op.64c {Prokofiev} [4:18]
04. Masks, Suite No.1, Op.64b {Prokofiev} [2:06]
05. Tybalt’s Death, Suite No.1, Op.64b {Prokofiev} [5:22]
06. Romeo At The Grave Of Juliet, Suite No.2, Op.64c {Prokofiev} [7:23]
Leonard Bernstein: West Side Story Symphonic Dances (1961)
07. Prologue {Bernstein} [4:20]
08. Somewhere {Bernstein} [4:01]
09. Scherzo {Bernstein} [1:28]
10. Mambo {Bernstein} [2:16]
11. Cha-Cha {Bernstein} [1:06]
12. Meeting Seene {Bernstein} [0:46]
13. Cool {Bernstein} [3:32]
14. Rumble {Bernstein} [1:38]
15. Finale {Bernstein} [3:15]

EAC Log
Exact Audio Copy V1.3 from 2. September 2016

EAC extraction logfile from 8. November 2016, 12:09

MISHA RACHLEVSKY & Symphony Orchestra KREMLIN / Romeo & Julia (USA, Pope Music, PMG 2011-2)

Used drive : ASUS DRW-24B3ST Adapter: 1 ID: 1

Read mode : Secure
Utilize accurate stream : Yes
Defeat audio cache : Yes
Make use of C2 pointers : No

Read offset correction : 6
Overread into Lead-In and Lead-Out : No
Fill up missing offset samples with silence : Yes
Delete leading and trailing silent blocks : No
Null samples used in CRC calculations : Yes
Used interface : Native Win32 interface for Win NT & 2000

Used output format : User Defined Encoder
Selected bitrate : 1024 kBit/s
Quality : High
Add ID3 tag : No
Command line compressor : C:Program FilesEAC(v.1.3)WVwavpack.exe
Additional command line options : -h -hh -m %source%

TOC of the extracted CD

Track | Start | Length | Start sector | End sector
––––––––––––––––––––––––––––-
1 | 0:00.00 | 19:31.00 | 0 | 87824
2 | 19:31.00 | 5:14.05 | 87825 | 111379
3 | 24:45.05 | 4:18.02 | 111380 | 130731
4 | 29:03.07 | 2:06.23 | 130732 | 140204
5 | 31:09.30 | 5:21.52 | 140205 | 164331
6 | 36:31.07 | 7:23.30 | 164332 | 197586
7 | 43:54.37 | 4:20.18 | 197587 | 217104
8 | 48:14.55 | 4:01.00 | 217105 | 235179
9 | 52:15.55 | 1:28.22 | 235180 | 241801
10 | 53:44.02 | 2:16.35 | 241802 | 252036
11 | 56:00.37 | 1:05.38 | 252037 | 256949
12 | 57:06.00 | 0:45.62 | 256950 | 260386
13 | 57:51.62 | 3:32.05 | 260387 | 276291
14 | 61:23.67 | 1:37.73 | 276292 | 283639
15 | 63:01.65 | 3:15.22 | 283640 | 298286

Range status and errors

Selected range

Filename F:MISHA RACHLEVSKY & Symphony Orchestra KREMLIN – Romeo & Julia (US 1997 Pope Music Dynamic Fidelity • PMG 2011-2)Symphony Orchestra KREMLIN – Romeo & Julia (USA, Pope Music, PMG 2011-2).wav

Peak level 100.0 %
Extraction speed 8.1 X
Range quality 100.0 %
Test CRC 43CD2028
Copy CRC 43CD2028
Copy OK

No errors occurred

AccurateRip summary

Track 1 accurately ripped (confidence 3) [3D75EAC8] (AR v2)
Track 2 accurately ripped (confidence 4) [2377B482] (AR v2)
Track 3 accurately ripped (confidence 4) [2E6B1FD3] (AR v2)
Track 4 accurately ripped (confidence 4) [35635AE2] (AR v2)
Track 5 accurately ripped (confidence 4) [1572F525] (AR v2)
Track 6 accurately ripped (confidence 4) [C8BE0DD6] (AR v2)
Track 7 accurately ripped (confidence 4) [948B8703] (AR v2)
Track 8 accurately ripped (confidence 4) [209F4E5E] (AR v2)
Track 9 accurately ripped (confidence 4) [ECA570FF] (AR v2)
Track 10 accurately ripped (confidence 4) [E0A36D6C] (AR v2)
Track 11 accurately ripped (confidence 4) [CAD3A964] (AR v2)
Track 12 accurately ripped (confidence 4) [016DE490] (AR v2)
Track 13 accurately ripped (confidence 4) [C4E70402] (AR v2)
Track 14 accurately ripped (confidence 4) [C25A502A] (AR v2)
Track 15 accurately ripped (confidence 4) [B7190A07] (AR v2)

All tracks accurately ripped

End of status report

==== Log checksum 3447D0E34C9600C7273A90F41C301A1DCBAF73938B67CE3FD189C2FB103F0318 ====

DR Log
foobar2000 1.2.9 / Dynamic Range Meter 1.1.1
log date: 2016-12-19 21:17:21

––––––––––––––––––––––––––––––––––––––––
Analyzed: MISHA RACHLEVSKY & Symphony Orchestra KREMLIN / Romeo & Julia (USA, Pope Music, PMG 2011-2)
––––––––––––––––––––––––––––––––––––––––

DR Peak RMS Duration Track
––––––––––––––––––––––––––––––––––––––––
DR16 -0.49 dB -23.79 dB 19:31 01-Romeo & Juliet (Fantasy Overture) {Tchaikovsky}
DR17 -0.52 dB -23.12 dB 5:14 02-Montagues & Capulets, Suite No.2, Op.64c {Prokofiev}
DR14 -18.40 dB -37.46 dB 4:18 03-The Child Juliet, Suite No.2, Op.64c {Prokofiev}
DR13 -13.90 dB -31.88 dB 2:06 04-Masks, Suite No.1, Op.64b {Prokofiev}
DR15 0.00 dB -19.53 dB 5:22 05-Tybalt’s Death, Suite No.1, Op.64b {Prokofiev}
DR15 -0.70 dB -23.90 dB 7:23 06-Romeo At The Grave Of Juliet, Suite No.2, Op.64c {Prokofiev}
DR15 -1.17 dB -21.73 dB 4:20 07-Prologue {Bernstein}
DR13 -3.08 dB -27.19 dB 4:01 08-Somewhere {Bernstein}
DR16 -10.26 dB -32.58 dB 1:28 09-Scherzo {Bernstein}
DR14 -0.45 dB -18.75 dB 2:16 10-Mambo {Bernstein}
DR13 -21.11 dB -38.30 dB 1:06 11-Cha-Cha {Bernstein}
DR9 -21.95 dB -41.91 dB 0:46 12-Meeting Seene {Bernstein}
DR15 0.00 dB -21.02 dB 3:32 13-Cool {Bernstein}
DR17 -0.50 dB -22.72 dB 1:38 14-Rumble {Bernstein}
DR12 -19.62 dB -36.64 dB 3:15 15-Finale {Bernstein}
––––––––––––––––––––––––––––––––––––––––

Number of tracks: 15
Official DR value: DR14

Samplerate: 44100 Hz
Channels: 2
Bits per sample: 16
Bitrate: 568 kbps
Codec: FLAC

CUETools Log
[CUETools log; Date: 19.12.2016 21:17:02; Version: 2.1.4]
[CTDB TOCID: XBfWehpLlZjggM9c2yBQHxFuE1U-] found.
Track | CTDB Status
1 | (6/6) Accurately ripped
2 | (6/6) Accurately ripped
3 | (6/6) Accurately ripped
4 | (6/6) Accurately ripped
5 | (6/6) Accurately ripped
6 | (6/6) Accurately ripped
7 | (6/6) Accurately ripped
8 | (6/6) Accurately ripped
9 | (6/6) Accurately ripped
10 | (6/6) Accurately ripped
11 | (6/6) Accurately ripped
12 | (6/6) Accurately ripped
13 | (6/6) Accurately ripped
14 | (6/6) Accurately ripped
15 | (6/6) Accurately ripped
[AccurateRip ID: 00301f4d-01f011eb-f30f890f] found.
Track [ CRC | V2 ] Status
01 [b966638a|3d75eac8] (04+04/11) Accurately ripped
02 [181952ef|2377b482] (04+05/12) Accurately ripped
03 [a2c8bc7c|2e6b1fd3] (04+05/12) Accurately ripped
04 [e27d3004|35635ae2] (04+05/12) Accurately ripped
05 [458323e7|1572f525] (04+05/12) Accurately ripped
06 [5eb3573c|c8be0dd6] (04+05/09) Accurately ripped
07 [2df569e9|948b8703] (04+05/11) Accurately ripped
08 [cf673290|209f4e5e] (04+05/11) Accurately ripped
09 [18747bd9|eca570ff] (04+05/12) Accurately ripped
10 [1f17a609|e0a36d6c] (04+05/12) Accurately ripped
11 [d4f35eb1|cad3a964] (04+05/09) Accurately ripped
12 [4d40c177|016de490] (04+05/12) Accurately ripped
13 [424b9d5c|c4e70402] (04+05/12) Accurately ripped
14 [6b19e0dd|c25a502a] (04+05/12) Accurately ripped
15 [0157d648|b7190a07] (03+05/08) Accurately ripped
Offsetted by 308:
01 [9c172388] (03/11) Accurately ripped
02 [848cf7b6] (03/12) Accurately ripped
03 [acb87202] (03/12) Accurately ripped
04 [9a134bba] (03/12) Accurately ripped
05 [bf0254eb] (03/12) Accurately ripped
06 [7e6a319b] (00/09) No match (V2 was not tested)
07 [5731b6fa] (02/11) Accurately ripped
08 [0b3e794b] (02/11) Accurately ripped
09 [b137f24b] (03/12) Accurately ripped
10 [9e7f27cd] (03/12) Accurately ripped
11 [dd42062f] (00/09) No match (V2 was not tested)
12 [926bdb57] (03/12) Accurately ripped
13 [a5fd75c7] (03/12) Accurately ripped
14 [de92562f] (03/12) Accurately ripped
15 [4c07afc4] (00/08) No match (V2 was not tested)

Track Peak [ CRC32 ] [W/O NULL] [ LOG ]
– 100,0 [43CD2028] [BD0AC978] CRC32
01 94,5 [CCBAD5B3] [9C717DD6]
02 94,1 [B420AF73] [4F249317]
03 12,0 [0D866E73] [C7A5A7C5]
04 20,1 [B619C289] [52294A18]
05 100,0 [95E28856] [D0139282]
06 92,2 [6D19465D] [B2CFEB3E]
07 87,3 [5B93578A] [A00033FB]
08 70,1 [676C7A60] [7D4AC163]
09 30,6 [EB82BE9B] [4E9EFCD8]
10 95,0 [90C6A788] [33F69BF8]
11 8,8 [70CC1DC0] [3E4C6FF4]
12 7,9 [502762AB] [98D54853]
13 100,0 [3CBE0C62] [AC2666E9]
14 94,4 [6E8D6F91] [9AB3CDBC]
15 10,4 [C8173283] [D727E916]

Symphony Orchestra Kremlin - Romeo & Julia (1997)

All thanks go to the original releaser

Download Symphony Orchestra Kremlin – Romeo & Julia (1997):

Symphony Orchestra Kremlin – Romeo & Julia (1997) Download, Warez, DDL, Free, Full Album, Torrent, Legal.

Download